<?xml version="1.0" standalone="no"?>
<!DOCTYPE svg PUBLIC "-//W3C//DTD SVG 1.1//EN" "http://www.w3.org/Graphics/SVG/1.1/DTD/svg11.dtd" >
<svg xmlns="http://www.w3.org/2000/svg" xmlns:xlink="http://www.w3.org/1999/xlink" version="1.1">
<metadata>
Created by FontForge 20160407 at Fri Oct  7 08:39:23 2016
 By Jimmy Wärting
Copyright (c) Mark Simonson, 2005. All rights reserved.
</metadata>
<defs>
<font id="ProximaNova-Semibold" horiz-adv-x="567" >
  <font-face 
    font-family="Proxima Nova Lt"
    font-weight="600"
    font-stretch="normal"
    units-per-em="1000"
    panose-1="2 0 5 6 3 0 0 2 0 4"
    ascent="790"
    descent="-210"
    x-height="483"
    cap-height="667"
    bbox="-172 -281 1119 908"
    underline-thickness="20"
    underline-position="-133"
    stemh="103"
    stemv="105"
    unicode-range="U+000D-FB04"
  />
<missing-glyph horiz-adv-x="493" 
d="M422 -90h-351v842h351v-842zM390 -60v782h-288v-782h288z" />
    <glyph glyph-name="f_b" unicode="fb" horiz-adv-x="889" 
d="M198 0h-105v391h-80v92h80v27c0 108 64 167 153 167c33 0 63 -7 84 -19l-23 -78c-10 7 -24 11 -42 11c-41 0 -67 -27 -67 -81v-27h98v-92h-98v-391zM481 145c23 -36 75 -64 124 -64c84 0 137 66 137 160s-53 161 -137 161c-49 0 -101 -30 -124 -66v-191zM481 0h-105v667
h105v-251c38 51 94 79 155 79c124 0 214 -98 214 -254c0 -159 -91 -253 -214 -253c-63 0 -118 30 -155 78v-66z" />
    <glyph glyph-name="f_f" unicode="ff" horiz-adv-x="617" 
d="M198 0h-105v391h-80v92h80v27c0 105 61 167 153 167c43 0 86 -11 116 -42l-41 -65c-14 13 -32 21 -56 21c-41 0 -67 -27 -67 -81v-27h98v-92h-98v-391zM506 0h-105v391h-80v92h80v27c0 105 61 167 153 167c43 0 86 -11 116 -42l-41 -65c-14 13 -32 21 -56 21
c-41 0 -67 -27 -67 -81v-27h98v-92h-98v-391z" />
    <glyph glyph-name="f_h" unicode="fh" horiz-adv-x="876" 
d="M198 0h-105v391h-80v92h80v27c0 108 64 167 153 167c33 0 63 -7 84 -19l-23 -78c-10 7 -24 11 -42 11c-41 0 -67 -27 -67 -81v-27h98v-92h-98v-391zM808 0h-105v304c0 75 -39 98 -98 98c-53 0 -99 -32 -124 -65v-337h-105v667h105v-250c32 38 95 78 171 78
c104 0 156 -54 156 -153v-342z" />
    <glyph glyph-name="fi" unicode="fi" horiz-adv-x="549" 
d="M198 0h-105v391h-80v92h80v27c0 108 64 167 153 167c33 0 63 -7 84 -19l-23 -78c-10 7 -24 11 -42 11c-41 0 -67 -27 -67 -81v-27h98v-92h-98v-391zM428 542c-35 0 -65 29 -65 65s30 65 65 65c36 0 65 -29 65 -65s-29 -65 -65 -65zM481 0h-105v483h105v-483z" />
    <glyph glyph-name="f_j" unicode="fj" horiz-adv-x="549" 
d="M198 0h-105v391h-80v92h80v27c0 108 64 167 153 167c33 0 63 -7 84 -19l-23 -78c-10 7 -24 11 -42 11c-41 0 -67 -27 -67 -81v-27h98v-92h-98v-391zM428 542c-35 0 -65 29 -65 65s30 65 65 65c36 0 65 -29 65 -65s-29 -65 -65 -65zM321 -196c-56 0 -81 11 -114 35l31 78
c18 -16 37 -27 67 -27c41 0 71 25 71 82v511h105v-511c0 -103 -54 -168 -160 -168z" />
    <glyph glyph-name="f_k" unicode="fk" horiz-adv-x="835" 
d="M198 0h-105v391h-80v92h80v27c0 108 64 167 153 167c33 0 63 -7 84 -19l-23 -78c-10 7 -24 11 -42 11c-41 0 -67 -27 -67 -81v-27h98v-92h-98v-391zM828 0h-132l-148 199l-67 -69v-130h-105v667h105v-417l213 233h130l-201 -219z" />
    <glyph glyph-name="fl" unicode="fl" horiz-adv-x="549" 
d="M198 0h-105v391h-80v92h80v27c0 108 64 167 153 167c33 0 63 -7 84 -19l-23 -78c-10 7 -24 11 -42 11c-41 0 -67 -27 -67 -81v-27h98v-92h-98v-391zM481 0h-105v667h105v-667z" />
    <glyph glyph-name="f_f_i" unicode="ffi" horiz-adv-x="858" 
d="M506 0h-105v391h-80v92h80v27c0 108 64 167 153 167c33 0 63 -7 84 -19l-23 -78c-10 7 -24 11 -42 11c-41 0 -67 -27 -67 -81v-27h98v-92h-98v-391zM737 542c-35 0 -65 29 -65 65s30 65 65 65c36 0 65 -29 65 -65s-29 -65 -65 -65zM790 0h-105v483h105v-483zM198 0h-105
v391h-80v92h80v27c0 105 61 167 153 167c43 0 86 -11 116 -42l-41 -65c-14 13 -32 21 -56 21c-41 0 -67 -27 -67 -81v-27h98v-92h-98v-391z" />
    <glyph glyph-name="f_f_j" unicode="ffj" horiz-adv-x="858" 
d="M506 0h-105v391h-80v92h80v27c0 108 64 167 153 167c33 0 63 -7 84 -19l-23 -78c-10 7 -24 11 -42 11c-41 0 -67 -27 -67 -81v-27h98v-92h-98v-391zM737 542c-35 0 -65 29 -65 65s30 65 65 65c36 0 65 -29 65 -65s-29 -65 -65 -65zM630 -196c-56 0 -81 11 -114 35l31 78
c18 -16 37 -27 67 -27c41 0 71 25 71 82v511h105v-511c0 -103 -54 -168 -160 -168zM198 0h-105v391h-80v92h80v27c0 105 61 167 153 167c43 0 86 -11 116 -42l-41 -65c-14 13 -32 21 -56 21c-41 0 -67 -27 -67 -81v-27h98v-92h-98v-391z" />
    <glyph glyph-name="f_f_l" unicode="ffl" horiz-adv-x="858" 
d="M506 0h-105v391h-80v92h80v27c0 108 64 167 153 167c33 0 63 -7 84 -19l-23 -78c-10 7 -24 11 -42 11c-41 0 -67 -27 -67 -81v-27h98v-92h-98v-391zM790 0h-105v667h105v-667zM198 0h-105v391h-80v92h80v27c0 105 61 167 153 167c43 0 86 -11 116 -42l-41 -65
c-14 13 -32 21 -56 21c-41 0 -67 -27 -67 -81v-27h98v-92h-98v-391z" />
    <glyph glyph-name=".notdef" horiz-adv-x="493" 
d="M422 -90h-351v842h351v-842zM390 -60v782h-288v-782h288z" />
    <glyph glyph-name=".null" horiz-adv-x="0" 
 />
    <glyph glyph-name=".null" horiz-adv-x="0" 
 />
    <glyph glyph-name="CR" unicode="&#xd;" horiz-adv-x="0" 
 />
    <glyph glyph-name="space" unicode=" " horiz-adv-x="257" 
 />
    <glyph glyph-name="nbspace" unicode="&#xa0;" horiz-adv-x="257" 
 />
    <glyph glyph-name="thinspace" unicode="&#x2009;" horiz-adv-x="51" 
 />
    <glyph glyph-name="zero" unicode="0" horiz-adv-x="616" 
d="M308 -12c-187 0 -267 177 -267 345s80 344 267 344s267 -176 267 -344s-80 -345 -267 -345zM308 92c109 0 148 114 148 241s-39 240 -148 240s-148 -113 -148 -240s39 -241 148 -241z" />
    <glyph glyph-name="zero.pzero" horiz-adv-x="616" 
d="M308 -12c-61 0 -110 18 -149 49l-23 -37h-85l58 90c-47 66 -68 156 -68 243c0 168 80 344 267 344c59 0 108 -18 147 -48l24 38h85l-59 -91c48 -66 70 -155 70 -243c0 -168 -80 -345 -267 -345zM308 92c109 0 148 114 148 241c0 49 -6 96 -20 136l-218 -340
c23 -24 52 -37 90 -37zM160 333c0 -49 5 -95 18 -134l218 338c-22 22 -51 36 -88 36c-109 0 -148 -113 -148 -240z" />
    <glyph glyph-name="one" unicode="1" horiz-adv-x="380" 
d="M309 0h-117v515l-109 -113l-68 71l192 194h102v-667z" />
    <glyph glyph-name="two" unicode="2" horiz-adv-x="595" 
d="M533 0h-483v92c259 196 360 283 360 379c0 70 -60 102 -121 102c-78 0 -138 -32 -180 -80l-68 77c59 71 153 107 246 107c129 0 242 -73 242 -206c0 -123 -113 -233 -292 -368h296v-103z" />
    <glyph glyph-name="three" unicode="3" horiz-adv-x="574" 
d="M276 -12c-119 0 -207 48 -252 108l63 77c43 -50 114 -81 185 -81c88 0 139 40 139 102c0 66 -53 94 -148 94c-28 0 -67 0 -77 -1v105c12 -1 51 -1 77 -1c78 0 137 27 137 88c0 62 -60 94 -135 94c-68 0 -124 -26 -172 -74l-60 73c51 60 132 105 243 105
c144 0 241 -68 241 -180c0 -89 -76 -141 -145 -153c65 -6 155 -59 155 -162c0 -113 -97 -194 -251 -194z" />
    <glyph glyph-name="four" unicode="4" horiz-adv-x="580" 
d="M463 0h-117v151h-318v94l274 422h161v-413h89v-103h-89v-151zM346 254v308l-203 -308h203z" />
    <glyph glyph-name="five" unicode="5" horiz-adv-x="600" 
d="M304 -12c-115 0 -194 39 -248 103l67 80c45 -51 105 -79 180 -79c84 0 137 52 137 117c0 72 -52 119 -134 119c-57 0 -104 -18 -146 -58l-83 24v373h437v-103h-320v-193c32 32 87 58 151 58c112 0 213 -79 213 -215c0 -139 -105 -226 -254 -226z" />
    <glyph glyph-name="six" unicode="6" horiz-adv-x="601" 
d="M316 -12c-196 0 -275 159 -275 344c0 193 101 345 294 345c83 0 147 -30 192 -74l-55 -89c-35 37 -73 59 -137 59c-111 0 -176 -103 -176 -220c0 -7 0 -13 1 -19c30 45 100 93 179 93c120 0 223 -73 223 -215c0 -124 -97 -224 -246 -224zM310 92c88 0 134 62 134 116
c0 82 -64 119 -137 119c-57 0 -112 -31 -146 -79c7 -72 46 -156 149 -156z" />
    <glyph glyph-name="seven" unicode="7" horiz-adv-x="532" 
d="M249 0h-128l252 564h-346v103h481v-81z" />
    <glyph glyph-name="eight" unicode="8" horiz-adv-x="595" 
d="M298 -12c-137 0 -256 63 -256 183c0 85 69 146 150 173c-75 24 -139 73 -139 158c0 123 126 175 245 175c117 0 245 -52 245 -175c0 -85 -65 -134 -140 -158c81 -27 150 -88 150 -173c0 -119 -119 -183 -255 -183zM298 390c41 7 126 31 126 94c0 56 -55 89 -126 89
c-73 0 -127 -33 -127 -89c0 -63 86 -87 127 -94zM298 92c74 0 137 36 137 94c0 69 -96 100 -137 105c-42 -5 -138 -36 -138 -105c0 -58 62 -94 138 -94z" />
    <glyph glyph-name="nine" unicode="9" horiz-adv-x="601" 
d="M265 -11c-82 0 -146 29 -191 74l54 88c35 -36 74 -58 137 -58c121 0 176 110 176 219v20c-31 -45 -101 -94 -179 -94c-120 0 -224 74 -224 216c0 123 97 224 246 224c196 0 275 -159 275 -345c0 -192 -101 -344 -294 -344zM293 339c57 0 113 30 146 78
c-6 72 -46 157 -149 157c-87 0 -133 -63 -133 -116c0 -82 64 -119 136 -119z" />
    <glyph glyph-name="zero.tnum" unicode="&#xf639;" horiz-adv-x="612" 
d="M306 -12c-187 0 -267 177 -267 345s80 344 267 344s267 -176 267 -344s-80 -345 -267 -345zM306 92c109 0 148 114 148 241s-39 240 -148 240s-148 -113 -148 -240s39 -241 148 -241z" />
    <glyph glyph-name="zero.tzero" unicode="&#xf638;" horiz-adv-x="612" 
d="M306 -12c-61 0 -110 18 -149 49l-23 -37h-85l58 90c-47 66 -68 156 -68 243c0 168 80 344 267 344c59 0 108 -18 147 -48l24 38h85l-59 -91c48 -66 70 -155 70 -243c0 -168 -80 -345 -267 -345zM306 92c109 0 148 114 148 241c0 49 -6 96 -20 136l-218 -340
c23 -24 52 -37 90 -37zM158 333c0 -49 5 -95 18 -134l218 338c-22 22 -51 36 -88 36c-109 0 -148 -113 -148 -240z" />
    <glyph glyph-name="one.tnum" unicode="&#xf6dc;" horiz-adv-x="612" 
d="M427 0h-117v515l-109 -113l-68 71l192 194h102v-667z" />
    <glyph glyph-name="two.tnum" unicode="&#xf63a;" horiz-adv-x="612" 
d="M551 0h-483v92c259 196 360 283 360 379c0 70 -60 102 -121 102c-78 0 -138 -32 -180 -80l-68 77c59 71 153 107 246 107c129 0 242 -73 242 -206c0 -123 -113 -233 -292 -368h296v-103z" />
    <glyph glyph-name="three.tnum" unicode="&#xf63b;" horiz-adv-x="612" 
d="M304 -12c-119 0 -207 48 -252 108l63 77c43 -50 114 -81 185 -81c88 0 139 40 139 102c0 66 -53 94 -148 94c-28 0 -67 0 -77 -1v105c12 -1 51 -1 77 -1c78 0 137 27 137 88c0 62 -60 94 -135 94c-68 0 -124 -26 -172 -74l-60 73c51 60 132 105 243 105
c144 0 241 -68 241 -180c0 -89 -76 -141 -145 -153c65 -6 155 -59 155 -162c0 -113 -97 -194 -251 -194z" />
    <glyph glyph-name="four.tnum" unicode="&#xf63c;" horiz-adv-x="612" 
d="M477 0h-117v151h-318v94l274 422h161v-413h89v-103h-89v-151zM360 254v308l-203 -308h203z" />
    <glyph glyph-name="five.tnum" unicode="&#xf63d;" horiz-adv-x="612" 
d="M308 -12c-115 0 -194 39 -248 103l67 80c45 -51 105 -79 180 -79c84 0 137 52 137 117c0 72 -52 119 -134 119c-57 0 -104 -18 -146 -58l-83 24v373h437v-103h-320v-193c32 32 87 58 151 58c112 0 213 -79 213 -215c0 -139 -105 -226 -254 -226z" />
    <glyph glyph-name="six.tnum" unicode="&#xf63e;" horiz-adv-x="612" 
d="M325 -12c-196 0 -275 159 -275 344c0 193 101 345 294 345c83 0 147 -30 192 -74l-55 -89c-35 37 -73 59 -137 59c-111 0 -176 -103 -176 -220c0 -7 0 -13 1 -19c30 45 100 93 179 93c120 0 223 -73 223 -215c0 -124 -97 -224 -246 -224zM319 92c88 0 134 62 134 116
c0 82 -64 119 -137 119c-57 0 -112 -31 -146 -79c7 -72 46 -156 149 -156z" />
    <glyph glyph-name="seven.tnum" unicode="&#xf63f;" horiz-adv-x="612" 
d="M288 0h-128l252 564h-346v103h481v-81z" />
    <glyph glyph-name="eight.tnum" unicode="&#xf640;" horiz-adv-x="612" 
d="M306 -12c-137 0 -256 63 -256 183c0 85 69 146 150 173c-75 24 -139 73 -139 158c0 123 126 175 245 175c117 0 245 -52 245 -175c0 -85 -65 -134 -140 -158c81 -27 150 -88 150 -173c0 -119 -119 -183 -255 -183zM306 390c41 7 126 31 126 94c0 56 -55 89 -126 89
c-73 0 -127 -33 -127 -89c0 -63 86 -87 127 -94zM306 92c74 0 137 36 137 94c0 69 -96 100 -137 105c-42 -5 -138 -36 -138 -105c0 -58 62 -94 138 -94z" />
    <glyph glyph-name="nine.tnum" unicode="&#xf641;" horiz-adv-x="612" 
d="M269 -11c-82 0 -146 29 -191 74l54 88c35 -36 74 -58 137 -58c121 0 176 110 176 219v20c-31 -45 -101 -94 -179 -94c-120 0 -224 74 -224 216c0 123 97 224 246 224c196 0 275 -159 275 -345c0 -192 -101 -344 -294 -344zM297 339c57 0 113 30 146 78
c-6 72 -46 157 -149 157c-87 0 -133 -63 -133 -116c0 -82 64 -119 136 -119z" />
    <glyph glyph-name="zero.tonum" unicode="&#xf643;" horiz-adv-x="612" 
d="M573 275c0 -147 -83 -287 -267 -287s-267 140 -267 287c0 148 83 287 267 287s267 -139 267 -287zM454 275c0 96 -46 183 -148 183s-148 -87 -148 -183c0 -97 46 -183 148 -183s148 86 148 183z" />
    <glyph glyph-name="zero.tonumzero" horiz-adv-x="612" 
d="M573 275c0 -147 -83 -287 -267 -287c-61 0 -110 15 -149 40l-22 -28h-87l57 74c-45 54 -66 126 -66 201c0 148 83 287 267 287c57 0 105 -14 144 -37l19 25h87l-53 -69c47 -54 70 -129 70 -206zM454 275c0 40 -8 78 -25 110l-205 -269c21 -15 49 -24 82 -24
c102 0 148 86 148 183zM158 275c0 -38 7 -74 21 -104l203 266c-20 13 -46 21 -76 21c-102 0 -148 -87 -148 -183z" />
    <glyph glyph-name="one.tonum" unicode="&#xf644;" horiz-adv-x="612" 
d="M427 0h-117v398l-109 -113l-68 71l192 194h102v-550z" />
    <glyph glyph-name="two.tonum" unicode="&#xf645;" horiz-adv-x="612" 
d="M527 0h-453v93c251 92 346 190 346 269c0 57 -51 96 -116 96c-73 0 -136 -29 -181 -80l-68 77c59 71 158 107 251 107c138 0 232 -71 232 -182s-115 -220 -252 -277h241v-103z" />
    <glyph glyph-name="three.tonum" unicode="&#xf646;" horiz-adv-x="612" 
d="M304 -127c-119 0 -207 48 -252 108l63 77c43 -50 114 -81 185 -81c88 0 139 40 139 102c0 66 -53 94 -148 94c-28 0 -67 0 -77 -1v105c12 -1 51 -1 77 -1c78 0 137 27 137 88c0 62 -60 94 -135 94c-68 0 -124 -26 -172 -74l-60 73c51 60 132 105 243 105
c144 0 241 -68 241 -180c0 -89 -76 -141 -145 -153c65 -6 155 -59 155 -162c0 -113 -97 -194 -251 -194z" />
    <glyph glyph-name="four.tonum" unicode="&#xf647;" horiz-adv-x="612" 
d="M566 39h-89v-156h-117v156h-318v94l274 417h161v-408h89v-103zM360 142v303l-203 -303h203z" />
    <glyph glyph-name="five.tonum" unicode="&#xf648;" horiz-adv-x="612" 
d="M308 -129c-115 0 -194 39 -248 103l67 80c45 -51 105 -79 180 -79c84 0 137 52 137 117c0 72 -52 119 -134 119c-57 0 -104 -18 -146 -58l-83 24v373h437v-103h-320v-193c32 32 87 58 151 58c112 0 213 -79 213 -215c0 -139 -105 -226 -254 -226z" />
    <glyph glyph-name="six.tonum" unicode="&#xf649;" horiz-adv-x="612" 
d="M325 -12c-196 0 -275 159 -275 344c0 193 101 345 294 345c83 0 147 -30 192 -74l-55 -89c-35 37 -73 59 -137 59c-111 0 -176 -103 -176 -220c0 -7 0 -13 1 -19c30 45 100 93 179 93c120 0 223 -73 223 -215c0 -124 -97 -224 -246 -224zM319 92c88 0 134 62 134 116
c0 82 -64 119 -137 119c-57 0 -112 -31 -146 -79c7 -72 46 -156 149 -156z" />
    <glyph glyph-name="seven.tonum" unicode="&#xf64a;" horiz-adv-x="612" 
d="M288 -117h-128l252 564h-346v103h481v-81z" />
    <glyph glyph-name="eight.tonum" unicode="&#xf64b;" horiz-adv-x="612" 
d="M306 -12c-137 0 -256 63 -256 183c0 85 69 146 150 173c-75 24 -139 73 -139 158c0 123 126 175 245 175c117 0 245 -52 245 -175c0 -85 -65 -134 -140 -158c81 -27 150 -88 150 -173c0 -119 -119 -183 -255 -183zM306 390c41 7 126 31 126 94c0 56 -55 89 -126 89
c-73 0 -127 -33 -127 -89c0 -63 86 -87 127 -94zM306 92c74 0 137 36 137 94c0 69 -96 100 -137 105c-42 -5 -138 -36 -138 -105c0 -58 62 -94 138 -94z" />
    <glyph glyph-name="nine.tonum" unicode="&#xf64c;" horiz-adv-x="612" 
d="M269 -127c-82 0 -146 29 -191 74l54 88c35 -36 74 -58 137 -58c121 0 176 110 176 219v20c-31 -45 -101 -94 -179 -94c-120 0 -224 74 -224 216c0 123 97 224 246 224c196 0 275 -159 275 -345c0 -192 -101 -344 -294 -344zM297 223c57 0 113 30 146 78
c-6 72 -46 157 -149 157c-87 0 -133 -63 -133 -116c0 -82 64 -119 136 -119z" />
    <glyph glyph-name="zero.onum" unicode="&#xf730;" horiz-adv-x="616" 
d="M575 275c0 -147 -83 -287 -267 -287s-267 140 -267 287c0 148 83 287 267 287s267 -139 267 -287zM456 275c0 96 -46 183 -148 183s-148 -87 -148 -183c0 -97 46 -183 148 -183s148 86 148 183z" />
    <glyph glyph-name="zero.onumzero" horiz-adv-x="616" 
d="M575 275c0 -147 -83 -287 -267 -287c-61 0 -110 15 -149 40l-22 -28h-87l57 74c-45 54 -66 126 -66 201c0 148 83 287 267 287c57 0 105 -14 144 -37l19 25h87l-53 -69c47 -54 70 -129 70 -206zM456 275c0 40 -8 78 -25 110l-205 -269c21 -15 49 -24 82 -24
c102 0 148 86 148 183zM160 275c0 -38 7 -74 21 -104l203 266c-20 13 -46 21 -76 21c-102 0 -148 -87 -148 -183z" />
    <glyph glyph-name="one.onum" unicode="&#xf731;" horiz-adv-x="380" 
d="M309 0h-117v398l-109 -113l-68 71l192 194h102v-550z" />
    <glyph glyph-name="two.onum" unicode="&#xf732;" horiz-adv-x="580" 
d="M507 0h-453v93c251 92 346 190 346 269c0 57 -51 96 -116 96c-73 0 -136 -29 -181 -80l-68 77c59 71 158 107 251 107c138 0 232 -71 232 -182s-115 -220 -252 -277h241v-103z" />
    <glyph glyph-name="three.onum" unicode="&#xf733;" horiz-adv-x="568" 
d="M270 -127c-119 0 -207 48 -252 108l63 77c43 -50 114 -81 185 -81c88 0 139 40 139 102c0 66 -53 94 -148 94c-28 0 -67 0 -77 -1v105c12 -1 51 -1 77 -1c78 0 137 27 137 88c0 62 -60 94 -135 94c-68 0 -124 -26 -172 -74l-60 73c51 60 132 105 243 105
c144 0 241 -68 241 -180c0 -89 -76 -141 -145 -153c65 -6 155 -59 155 -162c0 -113 -97 -194 -251 -194z" />
    <glyph glyph-name="four.onum" unicode="&#xf734;" horiz-adv-x="580" 
d="M552 39h-89v-156h-117v156h-318v94l274 417h161v-408h89v-103zM346 142v303l-203 -303h203z" />
    <glyph glyph-name="five.onum" unicode="&#xf735;" horiz-adv-x="600" 
d="M304 -129c-115 0 -194 39 -248 103l67 80c45 -51 105 -79 180 -79c84 0 137 52 137 117c0 72 -52 119 -134 119c-57 0 -104 -18 -146 -58l-83 24v373h437v-103h-320v-193c32 32 87 58 151 58c112 0 213 -79 213 -215c0 -139 -105 -226 -254 -226z" />
    <glyph glyph-name="six.onum" unicode="&#xf736;" horiz-adv-x="601" 
d="M316 -12c-196 0 -275 159 -275 344c0 193 101 345 294 345c83 0 147 -30 192 -74l-55 -89c-35 37 -73 59 -137 59c-111 0 -176 -103 -176 -220c0 -7 0 -13 1 -19c30 45 100 93 179 93c120 0 223 -73 223 -215c0 -124 -97 -224 -246 -224zM310 92c88 0 134 62 134 116
c0 82 -64 119 -137 119c-57 0 -112 -31 -146 -79c7 -72 46 -156 149 -156z" />
    <glyph glyph-name="seven.onum" unicode="&#xf737;" horiz-adv-x="532" 
d="M249 -117h-128l252 564h-346v103h481v-81z" />
    <glyph glyph-name="eight.onum" unicode="&#xf738;" horiz-adv-x="595" 
d="M298 -12c-137 0 -256 63 -256 183c0 85 69 146 150 173c-75 24 -139 73 -139 158c0 123 126 175 245 175c117 0 245 -52 245 -175c0 -85 -65 -134 -140 -158c81 -27 150 -88 150 -173c0 -119 -119 -183 -255 -183zM298 390c41 7 126 31 126 94c0 56 -55 89 -126 89
c-73 0 -127 -33 -127 -89c0 -63 86 -87 127 -94zM298 92c74 0 137 36 137 94c0 69 -96 100 -137 105c-42 -5 -138 -36 -138 -105c0 -58 62 -94 138 -94z" />
    <glyph glyph-name="nine.onum" unicode="&#xf739;" horiz-adv-x="601" 
d="M265 -127c-82 0 -146 29 -191 74l54 88c35 -36 74 -58 137 -58c121 0 176 110 176 219v20c-31 -45 -101 -94 -179 -94c-120 0 -224 74 -224 216c0 123 97 224 246 224c196 0 275 -159 275 -345c0 -192 -101 -344 -294 -344zM293 223c57 0 113 30 146 78
c-6 72 -46 157 -149 157c-87 0 -133 -63 -133 -116c0 -82 64 -119 136 -119z" />
    <glyph glyph-name="A" unicode="A" horiz-adv-x="673" 
d="M671 0h-133l-49 128h-306l-49 -128h-133l262 667h146zM456 231l-120 318l-120 -318h240z" />
    <glyph glyph-name="B" unicode="B" horiz-adv-x="648" 
d="M408 0h-337v667h328c122 0 190 -76 190 -170c0 -84 -54 -140 -116 -153c71 -11 129 -82 129 -164c0 -103 -69 -180 -194 -180zM375 391c60 0 94 36 94 86s-34 87 -94 87h-187v-173h187zM380 103c64 0 102 35 102 93c0 50 -35 92 -102 92h-192v-185h192z" />
    <glyph glyph-name="C" unicode="C" horiz-adv-x="682" 
d="M391 -12c-197 0 -350 140 -350 345s153 345 350 345c135 0 218 -70 268 -150l-100 -51c-32 55 -96 97 -168 97c-132 0 -230 -101 -230 -241s98 -241 230 -241c72 0 136 41 168 97l100 -51c-51 -80 -133 -150 -268 -150z" />
    <glyph glyph-name="D" unicode="D" horiz-adv-x="710" 
d="M319 0h-248v667h248c208 0 349 -138 349 -334s-141 -333 -349 -333zM319 103c145 0 229 104 229 230c0 129 -80 231 -229 231h-131v-461h131z" />
    <glyph glyph-name="E" unicode="E" horiz-adv-x="577" 
d="M528 0h-457v667h457v-103h-340v-173h333v-103h-333v-185h340v-103z" />
    <glyph glyph-name="F" unicode="F" horiz-adv-x="562" 
d="M188 0h-117v667h457v-103h-340v-173h333v-103h-333v-288z" />
    <glyph glyph-name="G" unicode="G" horiz-adv-x="717" 
d="M391 -13c-193 0 -350 137 -350 346s157 345 350 345c130 0 215 -62 269 -139l-96 -54c-35 50 -98 89 -173 89c-132 0 -230 -101 -230 -241s98 -242 230 -242c68 0 128 32 158 60v104h-199v103h316v-250c-66 -73 -159 -121 -275 -121z" />
    <glyph glyph-name="G.alt1" horiz-adv-x="745" 
d="M381 -13c-183 0 -340 137 -340 346s157 345 350 345c130 0 215 -62 269 -139l-96 -54c-35 50 -98 89 -173 89c-132 0 -230 -101 -230 -241s98 -242 230 -242c113 0 177 77 195 164h-236v103h364c0 -225 -123 -371 -333 -371z" />
    <glyph glyph-name="H" unicode="H" horiz-adv-x="723" 
d="M652 0h-117v291h-347v-291h-117v667h117v-273h347v273h117v-667z" />
    <glyph glyph-name="I" unicode="I" horiz-adv-x="259" 
d="M188 0h-117v667h117v-667z" />
    <glyph glyph-name="J" unicode="J" horiz-adv-x="481" 
d="M185 -12c-69 0 -130 20 -177 70l54 89c27 -29 63 -55 114 -55c72 0 117 48 117 121v454h117v-456c0 -152 -96 -223 -225 -223z" />
    <glyph glyph-name="K" unicode="K" horiz-adv-x="621" 
d="M614 0h-144l-224 281l-58 -68v-213h-117v667h117v-318l261 318h145l-271 -315z" />
    <glyph glyph-name="L" unicode="L" horiz-adv-x="517" 
d="M482 0h-411v667h117v-564h294v-103z" />
    <glyph glyph-name="M" unicode="M" horiz-adv-x="835" 
d="M764 0h-117v495l-205 -495h-50l-204 495v-495h-117v667h165l181 -439l182 439h165v-667z" />
    <glyph glyph-name="N" unicode="N" horiz-adv-x="720" 
d="M649 0h-113l-348 476v-476h-117v667h120l341 -463v463h117v-667z" />
    <glyph glyph-name="O" unicode="O" horiz-adv-x="765" 
d="M382 -12c-200 0 -341 146 -341 345s141 345 341 345s341 -146 341 -345s-141 -345 -341 -345zM382 92c134 0 221 104 221 241c0 138 -87 241 -221 241c-135 0 -221 -103 -221 -241c0 -137 86 -241 221 -241z" />
    <glyph glyph-name="P" unicode="P" horiz-adv-x="608" 
d="M188 0h-117v667h293c140 0 218 -96 218 -209s-79 -209 -218 -209h-176v-249zM348 352c66 0 114 42 114 106s-48 106 -114 106h-160v-212h160z" />
    <glyph glyph-name="Q" unicode="Q" horiz-adv-x="765" 
d="M382 -12c-200 0 -341 146 -341 345s141 345 341 345s341 -146 341 -345c0 -96 -33 -179 -89 -240l55 -62l-81 -68l-58 65c-48 -26 -105 -40 -168 -40zM382 92c35 0 66 7 94 20l-82 94l81 67l82 -94c30 41 46 95 46 154c0 138 -87 241 -221 241
c-135 0 -221 -103 -221 -241c0 -137 86 -241 221 -241z" />
    <glyph glyph-name="R" unicode="R" horiz-adv-x="628" 
d="M587 0h-135l-148 249h-116v-249h-117v667h293c132 0 218 -86 218 -209c0 -119 -78 -183 -158 -196zM348 352c66 0 114 42 114 106s-48 106 -114 106h-160v-212h160z" />
    <glyph glyph-name="S" unicode="S" horiz-adv-x="594" 
d="M299 -12c-123 0 -212 43 -271 106l65 90c46 -49 118 -92 211 -92c96 0 134 47 134 91c0 140 -389 53 -389 299c0 110 97 195 243 195c104 0 188 -33 250 -93l-67 -87c-52 52 -123 76 -193 76c-69 0 -113 -33 -113 -83c0 -124 388 -47 388 -296c0 -111 -78 -206 -258 -206
z" />
    <glyph glyph-name="T" unicode="T" horiz-adv-x="577" 
d="M347 0h-117v564h-202v103h521v-103h-202v-564z" />
    <glyph glyph-name="U" unicode="U" horiz-adv-x="719" 
d="M360 -12c-194 0 -289 111 -289 275v404h118v-400c0 -106 59 -175 171 -175c111 0 170 69 170 175v400h118v-403c0 -166 -95 -276 -288 -276z" />
    <glyph glyph-name="V" unicode="V" horiz-adv-x="673" 
d="M409 0h-146l-262 667h133l202 -540l202 540h133z" />
    <glyph glyph-name="W" unicode="W" horiz-adv-x="903" 
d="M706 0h-125l-130 492l-129 -492h-125l-191 667h131l130 -514l138 514h93l138 -514l129 514h131z" />
    <glyph glyph-name="X" unicode="X" horiz-adv-x="661" 
d="M657 0h-140l-187 261l-187 -261h-140l250 342l-235 325h140l172 -245l171 245h141l-234 -324z" />
    <glyph glyph-name="Y" unicode="Y" horiz-adv-x="637" 
d="M377 0h-117v277l-259 390h134l184 -286l182 286h134l-258 -390v-277z" />
    <glyph glyph-name="Z" unicode="Z" horiz-adv-x="589" 
d="M544 0h-500v95l341 469h-341v103h493v-95l-341 -469h348v-103z" />
    <glyph glyph-name="a" unicode="a" horiz-adv-x="536" 
d="M468 0h-105v52c-36 -41 -92 -64 -156 -64c-79 0 -168 53 -168 160c0 111 89 157 168 157c65 0 121 -21 156 -62v72c0 56 -46 90 -113 90c-54 0 -101 -20 -143 -61l-43 73c56 53 126 78 203 78c107 0 201 -45 201 -175v-320zM248 60c46 0 91 17 115 50v73
c-24 33 -69 50 -115 50c-59 0 -103 -34 -103 -87c0 -52 44 -86 103 -86z" />
    <glyph glyph-name="a.alt1" horiz-adv-x="581" 
d="M513 0h-105v66c-37 -48 -93 -78 -155 -78c-124 0 -215 94 -215 253c0 156 90 254 215 254c60 0 116 -28 154 -79v67h106v-483zM283 81c50 0 101 28 125 64v191c-24 36 -75 65 -125 65c-83 0 -136 -66 -136 -160c0 -93 53 -160 136 -160z" />
    <glyph glyph-name="b" unicode="b" horiz-adv-x="581" 
d="M173 145c23 -36 75 -64 124 -64c84 0 137 66 137 160s-53 161 -137 161c-49 0 -101 -30 -124 -66v-191zM173 0h-105v667h105v-251c38 51 94 79 155 79c124 0 214 -98 214 -254c0 -159 -91 -253 -214 -253c-63 0 -118 30 -155 78v-66z" />
    <glyph glyph-name="c" unicode="c" horiz-adv-x="497" 
d="M288 -12c-147 0 -250 107 -250 254c0 146 103 253 250 253c94 0 151 -40 185 -86l-69 -64c-27 38 -64 57 -111 57c-88 0 -146 -66 -146 -160s58 -161 146 -161c47 0 84 20 111 57l69 -64c-34 -46 -91 -86 -185 -86z" />
    <glyph glyph-name="d" unicode="d" horiz-adv-x="581" 
d="M513 0h-105v66c-37 -48 -93 -78 -155 -78c-124 0 -215 94 -215 253c0 156 90 254 215 254c60 0 116 -28 155 -79v251h105v-667zM283 81c50 0 101 28 125 64v192c-24 36 -75 65 -125 65c-83 0 -136 -67 -136 -161c0 -93 53 -160 136 -160z" />
    <glyph glyph-name="e" unicode="e" horiz-adv-x="557" 
d="M291 -12c-145 0 -253 101 -253 254c0 140 102 253 245 253c145 0 238 -111 238 -263v-25h-373c8 -73 63 -133 154 -133c47 0 103 19 137 53l48 -69c-48 -46 -119 -70 -196 -70zM419 281c-2 57 -41 128 -136 128c-90 0 -131 -69 -136 -128h272z" />
    <glyph glyph-name="f" unicode="f" horiz-adv-x="308" 
d="M198 0h-105v391h-80v92h80v27c0 105 61 167 153 167c43 0 86 -11 116 -42l-41 -65c-14 13 -32 21 -56 21c-41 0 -67 -27 -67 -81v-27h98v-92h-98v-391z" />
    <glyph glyph-name="f.alt1" horiz-adv-x="308" 
d="M198 0h-105v391h-80v92h80v27c0 108 64 167 153 167c33 0 63 -7 84 -19l-23 -78c-10 7 -24 11 -42 11c-41 0 -67 -27 -67 -81v-27h98v-92h-98v-391z" />
    <glyph glyph-name="g" unicode="g" horiz-adv-x="580" 
d="M264 -196c-82 0 -143 18 -202 72l49 76c39 -45 89 -62 153 -62c69 0 143 32 143 131v58c-37 -48 -92 -80 -155 -80c-123 0 -214 89 -214 248c0 156 90 248 214 248c61 0 116 -28 155 -79v67h105v-458c0 -174 -129 -221 -248 -221zM283 92c49 0 101 29 124 65v180
c-23 36 -75 65 -124 65c-83 0 -136 -62 -136 -155s53 -155 136 -155z" />
    <glyph glyph-name="h" unicode="h" horiz-adv-x="568" 
d="M500 0h-105v304c0 75 -39 98 -98 98c-53 0 -99 -32 -124 -65v-337h-105v667h105v-250c32 38 95 78 171 78c104 0 156 -54 156 -153v-342z" />
    <glyph glyph-name="i" unicode="i" horiz-adv-x="241" 
d="M120 542c-35 0 -65 29 -65 65s30 65 65 65c36 0 65 -29 65 -65s-29 -65 -65 -65zM173 0h-105v483h105v-483z" />
    <glyph glyph-name="j" unicode="j" horiz-adv-x="241" 
d="M120 542c-35 0 -65 29 -65 65s30 65 65 65c36 0 65 -29 65 -65s-29 -65 -65 -65zM13 -196c-56 0 -81 11 -114 35l31 78c18 -16 37 -27 67 -27c41 0 71 25 71 82v511h105v-511c0 -103 -54 -168 -160 -168z" />
    <glyph glyph-name="k" unicode="k" horiz-adv-x="526" 
d="M520 0h-132l-148 199l-67 -69v-130h-105v667h105v-417l213 233h130l-201 -219z" />
    <glyph glyph-name="l" unicode="l" horiz-adv-x="241" 
d="M173 0h-105v667h105v-667z" />
    <glyph glyph-name="l.alt1" horiz-adv-x="285" 
d="M192 -12c-82 0 -124 44 -124 124v555h105v-529c0 -33 16 -57 46 -57c20 0 38 8 46 17l25 -79c-19 -18 -50 -31 -98 -31z" />
    <glyph glyph-name="m" unicode="m" horiz-adv-x="833" 
d="M765 0h-105v315c0 52 -23 87 -79 87c-47 0 -91 -33 -112 -64v-338h-105v315c0 52 -23 87 -80 87c-46 0 -89 -33 -111 -65v-337h-105v483h105v-66c20 30 84 78 157 78c72 0 116 -36 132 -89c28 44 92 89 164 89c89 0 139 -48 139 -146v-349z" />
    <glyph glyph-name="n" unicode="n" 
d="M499 0h-105v302c0 75 -38 100 -97 100c-54 0 -100 -32 -124 -65v-337h-105v483h105v-66c32 38 94 78 170 78c104 0 156 -56 156 -155v-340z" />
    <glyph glyph-name="o" unicode="o" horiz-adv-x="573" 
d="M286 -12c-153 0 -248 115 -248 254c0 138 95 253 248 253c155 0 249 -115 249 -253c0 -139 -94 -254 -249 -254zM286 81c90 0 140 75 140 161c0 85 -50 160 -140 160c-89 0 -139 -75 -139 -160c0 -86 50 -161 139 -161z" />
    <glyph glyph-name="p" unicode="p" horiz-adv-x="578" 
d="M328 -12c-61 0 -116 27 -155 79v-251h-105v667h105v-66c36 48 92 78 155 78c125 0 214 -94 214 -253s-89 -254 -214 -254zM297 81c83 0 136 67 136 161c0 93 -53 160 -136 160c-49 0 -101 -29 -124 -65v-191c23 -35 75 -65 124 -65z" />
    <glyph glyph-name="q" unicode="q" horiz-adv-x="578" 
d="M281 81c49 0 101 30 124 65v191c-23 36 -75 65 -124 65c-83 0 -136 -67 -136 -160c0 -94 53 -161 136 -161zM250 -12c-125 0 -214 95 -214 254s89 253 214 253c63 0 119 -30 155 -78v66h105v-667h-105v251c-39 -52 -94 -79 -155 -79z" />
    <glyph glyph-name="r" unicode="r" horiz-adv-x="347" 
d="M173 0h-105v483h105v-71c36 46 94 82 157 82v-104c-9 2 -20 3 -33 3c-44 0 -103 -30 -124 -64v-329z" />
    <glyph glyph-name="s" unicode="s" horiz-adv-x="472" 
d="M233 -12c-82 0 -157 26 -207 75l48 76c34 -35 101 -68 164 -68s95 27 95 65c0 95 -292 27 -292 212c0 79 68 147 190 147c82 0 144 -29 188 -68l-44 -74c-29 33 -83 58 -143 58c-55 0 -90 -25 -90 -59c0 -86 292 -22 292 -214c0 -85 -71 -150 -201 -150z" />
    <glyph glyph-name="t" unicode="t" horiz-adv-x="319" 
d="M213 -12c-81 0 -124 44 -124 124v279h-80v92h80v132h105v-132h98v-92h-98v-253c0 -33 16 -57 46 -57c20 0 39 8 47 17l25 -79c-19 -18 -50 -31 -99 -31z" />
    <glyph glyph-name="u" unicode="u" 
d="M499 0h-105v64c-35 -39 -95 -76 -171 -76c-104 0 -155 54 -155 153v342h105v-304c0 -75 38 -98 97 -98c53 0 99 30 124 63v339h105v-483z" />
    <glyph glyph-name="v" unicode="v" horiz-adv-x="503" 
d="M308 0h-113l-197 483h112l141 -362l141 362h113z" />
    <glyph glyph-name="w" unicode="w" horiz-adv-x="754" 
d="M599 0h-110l-112 354l-112 -354h-110l-150 483h109l102 -351l115 351h92l115 -351l102 351h109z" />
    <glyph glyph-name="x" unicode="x" horiz-adv-x="496" 
d="M491 0h-118l-125 178l-126 -178h-117l177 248l-167 235h118l115 -164l114 164h118l-167 -235z" />
    <glyph glyph-name="y" unicode="y" horiz-adv-x="503" 
d="M47 -189l16 94c11 -5 28 -8 40 -8c33 0 55 10 69 42l24 55l-198 489h112l141 -362l141 362h113l-233 -570c-33 -82 -91 -108 -166 -109c-15 0 -44 3 -59 7z" />
    <glyph glyph-name="y.alt1" 
d="M257 -196c-81 0 -142 23 -195 72l49 76c36 -44 92 -62 146 -62c86 0 137 48 137 134v56c-35 -39 -95 -76 -171 -76c-104 0 -155 54 -155 153v326h105v-288c0 -75 38 -98 97 -98c53 0 99 30 124 63v323h105v-459c0 -145 -103 -220 -242 -220z" />
    <glyph glyph-name="z" unicode="z" horiz-adv-x="476" 
d="M429 0h-383v79l239 312h-239v92h379v-77l-241 -315h245v-91z" />
    <glyph glyph-name="A.smcp" unicode="&#xf761;" horiz-adv-x="586" 
d="M227 550h132l227 -550h-122l-42 103h-258l-41 -103h-123zM390 198l-97 240l-97 -240h194z" />
    <glyph glyph-name="B.smcp" unicode="&#xf762;" horiz-adv-x="572" 
d="M362 0h-294v550h286c108 0 167 -63 167 -141c0 -66 -43 -111 -94 -125c60 -14 106 -70 106 -135c0 -85 -61 -149 -171 -149zM343 95c48 0 78 26 78 68c0 37 -28 70 -78 70h-166v-138h166zM338 328c46 0 72 27 72 63c0 38 -27 64 -72 64h-161v-127h161z" />
    <glyph glyph-name="C.smcp" unicode="&#xf763;" horiz-adv-x="584" 
d="M335 -12c-169 0 -297 118 -297 287c0 170 128 287 297 287c110 0 186 -57 230 -129l-90 -45c-28 46 -80 78 -140 78c-106 0 -186 -80 -186 -191c0 -110 80 -191 186 -191c60 0 114 32 140 77l90 -44c-44 -73 -120 -129 -230 -129z" />
    <glyph glyph-name="D.smcp" unicode="&#xf764;" horiz-adv-x="621" 
d="M286 0h-218v550h217c182 0 298 -114 298 -276c0 -161 -116 -274 -297 -274zM285 95c122 0 186 81 186 179c0 100 -60 181 -185 181h-109v-360h108z" />
    <glyph glyph-name="E.smcp" unicode="&#xf765;" horiz-adv-x="515" 
d="M469 0h-401v550h401v-95h-292v-127h286v-95h-286v-138h292v-95z" />
    <glyph glyph-name="F.smcp" unicode="&#xf766;" horiz-adv-x="501" 
d="M177 0h-109v550h401v-95h-292v-127h286v-95h-286v-233z" />
    <glyph glyph-name="G.smcp" unicode="&#xf767;" horiz-adv-x="620" 
d="M337 -12c-168 0 -299 115 -299 287c0 173 131 287 299 287c103 0 179 -50 225 -111l-87 -53c-30 39 -80 67 -138 67c-108 0 -187 -79 -187 -190c0 -110 79 -192 187 -192c56 0 100 25 124 47v79h-147v91h256v-211c-57 -61 -138 -101 -233 -101z" />
    <glyph glyph-name="G.smcp.alt1" horiz-adv-x="636" 
d="M332 -12c-163 0 -294 115 -294 287c0 173 131 287 299 287c103 0 179 -50 225 -111l-87 -53c-30 40 -80 68 -138 68c-108 0 -187 -80 -187 -191c0 -110 79 -192 187 -192c75 0 140 46 155 126h-178v91h294c0 -199 -112 -312 -276 -312z" />
    <glyph glyph-name="H.smcp" unicode="&#xf768;" horiz-adv-x="644" 
d="M576 0h-109v234h-290v-234h-109v550h109v-221h290v221h109v-550z" />
    <glyph glyph-name="I.smcp" unicode="&#xf769;" horiz-adv-x="245" 
d="M177 0h-109v550h109v-550z" />
    <glyph glyph-name="J.smcp" unicode="&#xf76a;" horiz-adv-x="428" 
d="M157 -12c-59 0 -112 20 -151 63l46 81c23 -27 55 -48 97 -48c62 0 101 39 101 98v368h110v-377c0 -127 -84 -185 -203 -185z" />
    <glyph glyph-name="K.smcp" unicode="&#xf76b;" horiz-adv-x="552" 
d="M546 0h-133l-190 227l-46 -51v-176h-109v550h109v-251l218 251h133l-235 -260z" />
    <glyph glyph-name="L.smcp" unicode="&#xf76c;" horiz-adv-x="464" 
d="M430 0h-362v550h109v-455h253v-95z" />
    <glyph glyph-name="M.smcp" unicode="&#xf76d;" horiz-adv-x="740" 
d="M672 0h-109v383l-168 -383h-49l-169 383v-383h-109v550h146l156 -355l155 355h147v-550z" />
    <glyph glyph-name="N.smcp" unicode="&#xf76e;" horiz-adv-x="641" 
d="M573 0h-111l-285 380v-380h-109v550h116l280 -370v370h109v-550z" />
    <glyph glyph-name="O.smcp" unicode="&#xf76f;" horiz-adv-x="658" 
d="M329 -12c-174 0 -291 123 -291 287s117 287 291 287c172 0 290 -123 290 -287s-118 -287 -290 -287zM329 84c108 0 179 83 179 191c0 109 -71 191 -179 191c-110 0 -180 -82 -180 -191c0 -108 70 -191 180 -191z" />
    <glyph glyph-name="P.smcp" unicode="&#xf770;" horiz-adv-x="540" 
d="M177 0h-109v550h260c122 0 188 -81 188 -175c0 -95 -63 -176 -188 -176h-151v-199zM316 294c58 0 88 34 88 81c0 46 -31 80 -88 80h-139v-161h139z" />
    <glyph glyph-name="Q.smcp" unicode="&#xf771;" horiz-adv-x="658" 
d="M329 -12c-174 0 -291 123 -291 287s117 287 291 287c172 0 290 -123 290 -287c0 -80 -28 -151 -77 -202l45 -51l-66 -54l-48 54c-41 -22 -90 -34 -144 -34zM329 84c28 0 53 5 76 15l-64 73l66 55l64 -73c23 32 37 74 37 121c0 109 -71 191 -179 191
c-110 0 -180 -82 -180 -191c0 -108 70 -191 180 -191z" />
    <glyph glyph-name="R.smcp" unicode="&#xf772;" horiz-adv-x="561" 
d="M522 0h-126l-124 199h-95v-199h-109v550h260c119 0 188 -78 188 -175c0 -98 -63 -156 -136 -166zM316 294c58 0 89 34 89 81s-33 80 -89 80h-139v-161h139z" />
    <glyph glyph-name="S.smcp" unicode="&#xf773;" horiz-adv-x="511" 
d="M254 -12c-102 0 -183 36 -230 84l52 84c38 -39 106 -75 181 -75c80 0 114 34 114 74c0 112 -329 38 -329 242c0 92 86 165 211 165c92 0 165 -30 217 -79l-53 -78c-42 41 -108 63 -165 63c-59 0 -99 -28 -99 -68c0 -97 329 -31 329 -240c0 -101 -77 -172 -228 -172z" />
    <glyph glyph-name="T.smcp" unicode="&#xf774;" horiz-adv-x="480" 
d="M294 0h-109v455h-162v95h434v-95h-163v-455z" />
    <glyph glyph-name="U.smcp" unicode="&#xf775;" horiz-adv-x="636" 
d="M318 -12c-168 0 -250 92 -250 227v335h110v-326c0 -85 49 -140 140 -140c90 0 140 55 140 140v326h110v-334c0 -137 -83 -228 -250 -228z" />
    <glyph glyph-name="V.smcp" unicode="&#xf776;" horiz-adv-x="586" 
d="M359 0h-132l-227 550h124l169 -431l171 431h122z" />
    <glyph glyph-name="W.smcp" unicode="&#xf777;" horiz-adv-x="783" 
d="M613 0h-114l-108 389l-108 -389h-114l-165 550h121l107 -405l116 405h87l115 -406l108 406h121z" />
    <glyph glyph-name="X.smcp" unicode="&#xf778;" horiz-adv-x="577" 
d="M575 0h-129l-158 209l-158 -209h-129l216 282l-203 268h129l145 -195l145 195h129l-203 -267z" />
    <glyph glyph-name="Y.smcp" unicode="&#xf779;" horiz-adv-x="557" 
d="M334 0h-108v229l-226 321h124l156 -229l153 229h124l-223 -321v-229z" />
    <glyph glyph-name="Z.smcp" unicode="&#xf77a;" horiz-adv-x="520" 
d="M483 0h-446v80l290 374h-290v96h439v-80l-289 -374h296v-96z" />
    <glyph glyph-name="Aacute" unicode="&#xc1;" horiz-adv-x="673" 
d="M671 0h-133l-49 128h-306l-49 -128h-133l262 667h146zM456 231l-120 318l-120 -318h240zM516 867l-165 -144h-75l140 144h100z" />
    <glyph glyph-name="Abreve" unicode="&#x102;" horiz-adv-x="673" 
d="M671 0h-133l-49 128h-306l-49 -128h-133l262 667h146zM456 231l-120 318l-120 -318h240zM511 789c-40 -54 -103 -88 -175 -88c-71 0 -135 34 -176 88l48 40c29 -40 73 -66 128 -66c53 0 98 25 127 66z" />
    <glyph glyph-name="Acircumflex" unicode="&#xc2;" horiz-adv-x="673" 
d="M480 723h-67l-77 96l-75 -96h-66l93 144h96zM671 0h-133l-49 128h-306l-49 -128h-133l262 667h146zM456 231l-120 318l-120 -318h240z" />
    <glyph glyph-name="Adieresis" unicode="&#xc4;" horiz-adv-x="673" 
d="M500 775c0 -33 -27 -59 -59 -59s-59 26 -59 59c0 32 27 58 59 58s59 -26 59 -58zM290 775c0 -33 -26 -59 -58 -59c-33 0 -59 26 -59 59c0 32 26 58 59 58c32 0 58 -26 58 -58zM671 0h-133l-49 128h-306l-49 -128h-133l262 667h146zM456 231l-120 318l-120 -318h240z" />
    <glyph glyph-name="Agrave" unicode="&#xc0;" horiz-adv-x="673" 
d="M671 0h-133l-49 128h-306l-49 -128h-133l262 667h146zM456 231l-120 318l-120 -318h240zM398 723h-75l-165 144h100z" />
    <glyph glyph-name="Amacron" unicode="&#x100;" horiz-adv-x="673" 
d="M671 0h-133l-49 128h-306l-49 -128h-133l262 667h146zM456 231l-120 318l-120 -318h240zM517 733h-363v62h363v-62z" />
    <glyph glyph-name="Aogonek" unicode="&#x104;" horiz-adv-x="673" 
d="M685 -101l45 -27c-16 -32 -45 -58 -92 -58c-50 0 -95 26 -95 89c0 37 18 71 48 97h-53l-49 128h-306l-49 -128h-133l262 667h146l262 -667c-48 -24 -73 -55 -73 -93c0 -32 18 -46 40 -46c25 0 39 15 47 38zM456 231l-120 318l-120 -318h240z" />
    <glyph glyph-name="Aring" unicode="&#xc5;" horiz-adv-x="673" 
d="M671 0h-133l-49 128h-306l-49 -128h-133l262 667h146zM456 231l-120 318l-120 -318h240zM337 689c-56 0 -102 46 -102 102s46 103 102 103s101 -47 101 -103s-45 -102 -101 -102zM337 739c29 0 51 24 51 52c0 29 -22 52 -51 52c-28 0 -52 -23 -52 -52
c0 -28 24 -52 52 -52z" />
    <glyph glyph-name="Atilde" unicode="&#xc3;" horiz-adv-x="673" 
d="M671 0h-133l-49 128h-306l-49 -128h-133l262 667h146zM456 231l-120 318l-120 -318h240zM394 721c-70 0 -77 78 -119 78c-23 0 -42 -22 -42 -72h-57c0 82 36 134 103 134c69 0 77 -78 119 -78c23 0 41 22 41 72h58c0 -82 -36 -134 -103 -134z" />
    <glyph glyph-name="uni1EA0" unicode="&#x1ea0;" horiz-adv-x="673" 
d="M671 0h-133l-49 128h-306l-49 -128h-133l262 667h146zM456 231l-120 318l-120 -318h240zM337 -191c-32 0 -59 26 -59 59c0 32 27 59 59 59s58 -27 58 -59c0 -33 -26 -59 -58 -59z" />
    <glyph glyph-name="uni1EA2" unicode="&#x1ea2;" horiz-adv-x="673" 
d="M671 0h-133l-49 128h-306l-49 -128h-133l262 667h146zM456 231l-120 318l-120 -318h240zM299 752l-40 12c11 34 39 56 77 56c40 0 76 -21 76 -71c0 -21 -6 -35 -17 -52h-48c15 16 21 33 21 50c0 24 -14 35 -32 35c-19 0 -31 -12 -37 -30z" />
    <glyph glyph-name="uni1EA4" unicode="&#x1ea4;" horiz-adv-x="673" 
d="M480 682h-67l-77 72l-75 -72h-66l93 108h96zM671 0h-133l-49 128h-306l-49 -128h-133l262 667h146zM456 231l-120 318l-120 -318h240zM687 844l-165 -108h-75l140 108h100z" />
    <glyph glyph-name="uni1EAC" unicode="&#x1eac;" horiz-adv-x="673" 
d="M671 0h-133l-49 128h-306l-49 -128h-133l262 667h146zM456 231l-120 318l-120 -318h240zM479 723h-67l-77 96l-75 -96h-66l93 144h96zM337 -191c-32 0 -59 26 -59 59c0 32 27 59 59 59s58 -27 58 -59c0 -33 -26 -59 -58 -59z" />
    <glyph glyph-name="uni1EA6" unicode="&#x1ea6;" horiz-adv-x="673" 
d="M480 682h-67l-77 72l-75 -72h-66l93 108h96zM671 0h-133l-49 128h-306l-49 -128h-133l262 667h146zM456 231l-120 318l-120 -318h240zM228 736h-75l-165 108h100z" />
    <glyph glyph-name="uni1EA8" unicode="&#x1ea8;" horiz-adv-x="673" 
d="M480 682h-67l-77 72l-75 -72h-66l93 108h96zM671 0h-133l-49 128h-306l-49 -128h-133l262 667h146zM456 231l-120 318l-120 -318h240zM450 785l-40 9c11 26 39 42 77 42c40 0 76 -15 76 -53c0 -16 -6 -26 -17 -39h-48c15 12 21 25 21 38c0 18 -14 26 -32 26
c-19 0 -31 -9 -37 -23z" />
    <glyph glyph-name="uni1EAE" unicode="&#x1eae;" horiz-adv-x="673" 
d="M671 0h-133l-49 128h-306l-49 -128h-133l262 667h146zM456 231l-120 318l-120 -318h240zM516 834l-165 -90h-75l140 90h100zM511 750c-40 -40 -103 -66 -175 -66c-71 0 -135 26 -176 66l48 30c29 -30 73 -49 128 -49c53 0 98 19 127 49z" />
    <glyph glyph-name="uni1EAA" unicode="&#x1eaa;" horiz-adv-x="673" 
d="M480 678h-67l-77 48l-75 -48h-66l93 72h96zM671 0h-133l-49 128h-306l-49 -128h-133l262 667h146zM456 231l-120 318l-120 -318h240zM393 757c-70 0 -77 39 -119 39c-23 0 -42 -11 -42 -36h-57c0 41 36 67 103 67c69 0 77 -39 119 -39c23 0 41 11 41 36h58
c0 -41 -36 -67 -103 -67z" />
    <glyph glyph-name="uni1EB0" unicode="&#x1eb0;" horiz-adv-x="673" 
d="M671 0h-133l-49 128h-306l-49 -128h-133l262 667h146zM456 231l-120 318l-120 -318h240zM398 744h-75l-165 90h100zM511 746c-40 -40 -103 -66 -175 -66c-71 0 -135 26 -176 66l48 30c29 -30 73 -49 128 -49c53 0 98 19 127 49z" />
    <glyph glyph-name="uni1EB2" unicode="&#x1eb2;" horiz-adv-x="673" 
d="M671 0h-133l-49 128h-306l-49 -128h-133l262 667h146zM456 231l-120 318l-120 -318h240zM299 781l-40 8c11 21 39 35 77 35c40 0 76 -13 76 -45c0 -13 -6 -22 -17 -32h-48c15 10 21 20 21 31c0 15 -14 22 -32 22c-19 0 -31 -8 -37 -19zM511 747
c-40 -40 -103 -66 -175 -66c-71 0 -135 26 -176 66l48 30c29 -30 73 -49 128 -49c53 0 98 19 127 49z" />
    <glyph glyph-name="uni1EB4" unicode="&#x1eb4;" horiz-adv-x="673" 
d="M671 0h-133l-49 128h-306l-49 -128h-133l262 667h146zM456 231l-120 318l-120 -318h240zM512 729c-40 -32 -103 -51 -175 -51c-71 0 -135 19 -176 51l48 23c29 -23 73 -38 128 -38c53 0 98 14 127 38zM393 757c-70 0 -77 39 -119 39c-23 0 -42 -11 -42 -36h-57
c0 41 36 67 103 67c69 0 77 -39 119 -39c23 0 41 11 41 36h58c0 -41 -36 -67 -103 -67z" />
    <glyph glyph-name="uni1EB6" unicode="&#x1eb6;" horiz-adv-x="673" 
d="M671 0h-133l-49 128h-306l-49 -128h-133l262 667h146zM456 231l-120 318l-120 -318h240zM337 -191c-32 0 -59 26 -59 59c0 32 27 59 59 59s58 -27 58 -59c0 -33 -26 -59 -58 -59zM511 789c-40 -54 -103 -88 -175 -88c-71 0 -135 34 -176 88l48 40c29 -40 73 -66 128 -66
c53 0 98 25 127 66z" />
    <glyph glyph-name="AE" unicode="&#xc6;" horiz-adv-x="959" 
d="M912 0h-457v128h-247l-77 -128h-133l410 667h504v-103h-340v-173h333v-103h-333v-185h340v-103zM455 231v318l-191 -318h191z" />
    <glyph glyph-name="AEacute" unicode="&#x1fc;" horiz-adv-x="959" 
d="M695 867l-165 -144h-75l140 144h100zM912 0h-457v128h-247l-77 -128h-133l410 667h504v-103h-340v-173h333v-103h-333v-185h340v-103zM455 231v318l-191 -318h191z" />
    <glyph glyph-name="uni1E02" unicode="&#x1e02;" horiz-adv-x="648" 
d="M408 0h-337v667h328c122 0 190 -76 190 -170c0 -84 -54 -140 -116 -153c71 -11 129 -82 129 -164c0 -103 -69 -180 -194 -180zM375 391c60 0 94 36 94 86s-34 87 -94 87h-187v-173h187zM380 103c64 0 102 35 102 93c0 50 -35 92 -102 92h-192v-185h192zM324 715
c-32 0 -59 26 -59 59c0 32 27 59 59 59s58 -27 58 -59c0 -33 -26 -59 -58 -59z" />
    <glyph glyph-name="Cacute" unicode="&#x106;" horiz-adv-x="682" 
d="M570 867l-165 -144h-75l140 144h100zM391 -12c-197 0 -350 140 -350 345s153 345 350 345c135 0 218 -70 268 -150l-100 -51c-32 55 -96 97 -168 97c-132 0 -230 -101 -230 -241s98 -241 230 -241c72 0 136 41 168 97l100 -51c-51 -80 -133 -150 -268 -150z" />
    <glyph glyph-name="Ccedilla" unicode="&#xc7;" horiz-adv-x="682" 
d="M385 -190c-46 0 -86 15 -106 31l22 46c25 -20 54 -29 81 -29c29 0 56 12 56 36c0 19 -11 30 -33 30c-13 0 -26 -6 -34 -15l-41 23l21 58c-177 17 -310 152 -310 343c0 205 153 345 350 345c135 0 218 -70 268 -150l-100 -51c-32 55 -96 97 -168 97
c-132 0 -230 -101 -230 -241s98 -241 230 -241c72 0 136 41 168 97l100 -51c-49 -77 -128 -145 -254 -150l-15 -37c10 7 23 11 36 11c38 0 67 -28 67 -69c0 -51 -49 -83 -108 -83z" />
    <glyph glyph-name="Ccircumflex" unicode="&#x108;" horiz-adv-x="682" 
d="M533 723h-67l-77 96l-75 -96h-66l93 144h96zM391 -12c-197 0 -350 140 -350 345s153 345 350 345c135 0 218 -70 268 -150l-100 -51c-32 55 -96 97 -168 97c-132 0 -230 -101 -230 -241s98 -241 230 -241c72 0 136 41 168 97l100 -51c-51 -80 -133 -150 -268 -150z" />
    <glyph glyph-name="Cdotaccent" unicode="&#x10a;" horiz-adv-x="682" 
d="M391 -12c-197 0 -350 140 -350 345s153 345 350 345c135 0 218 -70 268 -150l-100 -51c-32 55 -96 97 -168 97c-132 0 -230 -101 -230 -241s98 -241 230 -241c72 0 136 41 168 97l100 -51c-51 -80 -133 -150 -268 -150zM393 715c-32 0 -59 26 -59 59c0 32 27 59 59 59
s58 -27 58 -59c0 -33 -26 -59 -58 -59z" />
    <glyph glyph-name="Ccaron" unicode="&#x10c;" horiz-adv-x="682" 
d="M440 723h-96l-96 144h66l78 -97l74 97h67zM391 -12c-197 0 -350 140 -350 345s153 345 350 345c135 0 218 -70 268 -150l-100 -51c-32 55 -96 97 -168 97c-132 0 -230 -101 -230 -241s98 -241 230 -241c72 0 136 41 168 97l100 -51c-51 -80 -133 -150 -268 -150z" />
    <glyph glyph-name="Dcaron" unicode="&#x10e;" horiz-adv-x="710" 
d="M407 723h-96l-96 144h66l78 -97l74 97h67zM319 0h-248v667h248c208 0 349 -138 349 -334s-141 -333 -349 -333zM319 103c145 0 229 104 229 230c0 129 -80 231 -229 231h-131v-461h131z" />
    <glyph glyph-name="Dcroat" unicode="&#x110;" horiz-adv-x="736" 
d="M345 0h-248v285h-88v86h88v296h248c208 0 349 -138 349 -334s-141 -333 -349 -333zM345 103c145 0 229 104 229 230c0 129 -80 231 -229 231h-131v-193h158v-86h-158v-182h131z" />
    <glyph glyph-name="uni1E0A" unicode="&#x1e0a;" horiz-adv-x="710" 
d="M319 0h-248v667h248c208 0 349 -138 349 -334s-141 -333 -349 -333zM319 103c145 0 229 104 229 230c0 129 -80 231 -229 231h-131v-461h131zM355 715c-32 0 -59 26 -59 59c0 32 27 59 59 59s58 -27 58 -59c0 -33 -26 -59 -58 -59z" />
    <glyph glyph-name="Eacute" unicode="&#xc9;" horiz-adv-x="577" 
d="M478 867l-165 -144h-75l140 144h100zM528 0h-457v667h457v-103h-340v-173h333v-103h-333v-185h340v-103z" />
    <glyph glyph-name="Ebreve" unicode="&#x114;" horiz-adv-x="577" 
d="M528 0h-457v667h457v-103h-340v-173h333v-103h-333v-185h340v-103zM476 789c-40 -54 -103 -88 -175 -88c-71 0 -135 34 -176 88l48 40c29 -40 73 -66 128 -66c53 0 98 25 127 66z" />
    <glyph glyph-name="Ecircumflex" unicode="&#xca;" horiz-adv-x="577" 
d="M442 723h-67l-77 96l-75 -96h-66l93 144h96zM528 0h-457v667h457v-103h-340v-173h333v-103h-333v-185h340v-103z" />
    <glyph glyph-name="Edieresis" unicode="&#xcb;" horiz-adv-x="577" 
d="M463 775c0 -33 -27 -59 -59 -59s-59 26 -59 59c0 32 27 58 59 58s59 -26 59 -58zM253 775c0 -33 -26 -59 -58 -59c-33 0 -59 26 -59 59c0 32 26 58 59 58c32 0 58 -26 58 -58zM528 0h-457v667h457v-103h-340v-173h333v-103h-333v-185h340v-103z" />
    <glyph glyph-name="Edotaccent" unicode="&#x116;" horiz-adv-x="577" 
d="M528 0h-457v667h457v-103h-340v-173h333v-103h-333v-185h340v-103zM301 715c-32 0 -59 26 -59 59c0 32 27 59 59 59s58 -27 58 -59c0 -33 -26 -59 -58 -59z" />
    <glyph glyph-name="Egrave" unicode="&#xc8;" horiz-adv-x="577" 
d="M528 0h-457v667h457v-103h-340v-173h333v-103h-333v-185h340v-103zM360 723h-75l-165 144h100z" />
    <glyph glyph-name="Emacron" unicode="&#x112;" horiz-adv-x="577" 
d="M528 0h-457v667h457v-103h-340v-173h333v-103h-333v-185h340v-103zM481 733h-363v62h363v-62z" />
    <glyph glyph-name="Eogonek" unicode="&#x118;" horiz-adv-x="577" 
d="M528 0c-48 -24 -73 -55 -73 -93c0 -32 18 -46 40 -46c25 0 39 15 47 38l45 -27c-16 -32 -45 -58 -92 -58c-50 0 -95 26 -95 89c0 37 18 71 48 97h-377v667h457v-103h-340v-173h333v-103h-333v-185h340v-103z" />
    <glyph glyph-name="Ecaron" unicode="&#x11a;" horiz-adv-x="577" 
d="M350 723h-96l-96 144h66l78 -97l74 97h67zM528 0h-457v667h457v-103h-340v-173h333v-103h-333v-185h340v-103z" />
    <glyph glyph-name="uni1EB8" unicode="&#x1eb8;" horiz-adv-x="577" 
d="M528 0h-457v667h457v-103h-340v-173h333v-103h-333v-185h340v-103zM301 -191c-32 0 -59 26 -59 59c0 32 27 59 59 59s58 -27 58 -59c0 -33 -26 -59 -58 -59z" />
    <glyph glyph-name="uni1EBA" unicode="&#x1eba;" horiz-adv-x="577" 
d="M528 0h-457v667h457v-103h-340v-173h333v-103h-333v-185h340v-103zM263 752l-40 12c11 34 39 56 77 56c40 0 76 -21 76 -71c0 -21 -6 -35 -17 -52h-48c15 16 21 33 21 50c0 24 -14 35 -32 35c-19 0 -31 -12 -37 -30z" />
    <glyph glyph-name="uni1EBC" unicode="&#x1ebc;" horiz-adv-x="577" 
d="M528 0h-457v667h457v-103h-340v-173h333v-103h-333v-185h340v-103zM357 721c-70 0 -77 78 -119 78c-23 0 -42 -22 -42 -72h-57c0 82 36 134 103 134c69 0 77 -78 119 -78c23 0 41 22 41 72h58c0 -82 -36 -134 -103 -134z" />
    <glyph glyph-name="uni1EBE" unicode="&#x1ebe;" horiz-adv-x="577" 
d="M447 682h-67l-77 72l-75 -72h-66l93 108h96zM654 844l-165 -108h-75l140 108h100zM528 0h-457v667h457v-103h-340v-173h333v-103h-333v-185h340v-103z" />
    <glyph glyph-name="uni1EC0" unicode="&#x1ec0;" horiz-adv-x="577" 
d="M447 682h-67l-77 72l-75 -72h-66l93 108h96zM528 0h-457v667h457v-103h-340v-173h333v-103h-333v-185h340v-103zM195 736h-75l-165 108h100z" />
    <glyph glyph-name="uni1EC2" unicode="&#x1ec2;" horiz-adv-x="577" 
d="M447 682h-67l-77 72l-75 -72h-66l93 108h96zM528 0h-457v667h457v-103h-340v-173h333v-103h-333v-185h340v-103zM417 785l-40 9c11 26 39 42 77 42c40 0 76 -15 76 -53c0 -16 -6 -26 -17 -39h-48c15 12 21 25 21 38c0 18 -14 26 -32 26c-19 0 -31 -9 -37 -23z" />
    <glyph glyph-name="uni1EC4" unicode="&#x1ec4;" horiz-adv-x="577" 
d="M447 678h-67l-77 48l-75 -48h-66l93 72h96zM528 0h-457v667h457v-103h-340v-173h333v-103h-333v-185h340v-103zM360 757c-70 0 -77 39 -119 39c-23 0 -42 -11 -42 -36h-57c0 41 36 67 103 67c69 0 77 -39 119 -39c23 0 41 11 41 36h58c0 -41 -36 -67 -103 -67z" />
    <glyph glyph-name="uni1EC6" unicode="&#x1ec6;" horiz-adv-x="577" 
d="M442 723h-67l-77 96l-75 -96h-66l93 144h96zM528 0h-457v667h457v-103h-340v-173h333v-103h-333v-185h340v-103zM301 -191c-32 0 -59 26 -59 59c0 32 27 59 59 59s58 -27 58 -59c0 -33 -26 -59 -58 -59z" />
    <glyph glyph-name="uni1E1E" unicode="&#x1e1e;" horiz-adv-x="562" 
d="M300 715c-32 0 -59 26 -59 59c0 32 27 59 59 59s58 -27 58 -59c0 -33 -26 -59 -58 -59zM188 0h-117v667h457v-103h-340v-173h333v-103h-333v-288z" />
    <glyph glyph-name="Gcircumflex" unicode="&#x11c;" horiz-adv-x="717" 
d="M537 723h-67l-77 96l-75 -96h-66l93 144h96zM391 -13c-193 0 -350 137 -350 346s157 345 350 345c130 0 215 -62 269 -139l-96 -54c-35 50 -98 89 -173 89c-132 0 -230 -101 -230 -241s98 -242 230 -242c68 0 128 32 158 60v104h-199v103h316v-250
c-66 -73 -159 -121 -275 -121z" />
    <glyph glyph-name="Gbreve" unicode="&#x11e;" horiz-adv-x="717" 
d="M391 -13c-193 0 -350 137 -350 346s157 345 350 345c130 0 215 -62 269 -139l-96 -54c-35 50 -98 89 -173 89c-132 0 -230 -101 -230 -241s98 -242 230 -242c68 0 128 32 158 60v104h-199v103h316v-250c-66 -73 -159 -121 -275 -121zM568 789c-40 -54 -103 -88 -175 -88
c-71 0 -135 34 -176 88l48 40c29 -40 73 -66 128 -66c53 0 98 25 127 66z" />
    <glyph glyph-name="Gdotaccent" unicode="&#x120;" horiz-adv-x="717" 
d="M391 -13c-193 0 -350 137 -350 346s157 345 350 345c130 0 215 -62 269 -139l-96 -54c-35 50 -98 89 -173 89c-132 0 -230 -101 -230 -241s98 -242 230 -242c68 0 128 32 158 60v104h-199v103h316v-250c-66 -73 -159 -121 -275 -121zM393 715c-32 0 -59 26 -59 59
c0 32 27 59 59 59s58 -27 58 -59c0 -33 -26 -59 -58 -59z" />
    <glyph glyph-name="Gcommaaccent" unicode="&#x122;" horiz-adv-x="717" 
d="M455 -138c0 -58 -33 -111 -78 -143l-39 31c28 17 56 53 61 82c-2 -1 -9 -2 -14 -2c-27 0 -48 21 -48 51c0 31 24 56 55 56c33 0 63 -27 63 -75zM391 -13c-193 0 -350 137 -350 346s157 345 350 345c130 0 215 -62 269 -139l-96 -54c-35 50 -98 89 -173 89
c-132 0 -230 -101 -230 -241s98 -242 230 -242c68 0 128 32 158 60v104h-199v103h316v-250c-66 -73 -159 -121 -275 -121z" />
    <glyph glyph-name="Gbreve.alt1" horiz-adv-x="737" 
d="M568 789c-40 -54 -103 -88 -175 -88c-71 0 -135 34 -176 88l48 40c29 -40 73 -66 128 -66c53 0 98 25 127 66zM381 -13c-183 0 -340 137 -340 346s157 345 350 345c130 0 215 -62 269 -139l-96 -54c-35 50 -98 89 -173 89c-132 0 -230 -101 -230 -241s98 -242 230 -242
c113 0 177 77 195 164h-236v103h364c0 -225 -123 -371 -333 -371z" />
    <glyph glyph-name="Gcommaaccent.alt1" horiz-adv-x="737" 
d="M455 -138c0 -58 -33 -111 -78 -143l-39 31c28 17 56 53 61 82c-2 -1 -9 -2 -14 -2c-27 0 -48 21 -48 51c0 31 24 56 55 56c33 0 63 -27 63 -75zM381 -13c-183 0 -340 137 -340 346s157 345 350 345c130 0 215 -62 269 -139l-96 -54c-35 50 -98 89 -173 89
c-132 0 -230 -101 -230 -241s98 -242 230 -242c113 0 177 77 195 164h-236v103h364c0 -225 -123 -371 -333 -371z" />
    <glyph glyph-name="Gcircumflex.alt1" horiz-adv-x="737" 
d="M532 723h-67l-77 96l-75 -96h-66l93 144h96zM381 -13c-183 0 -340 137 -340 346s157 345 350 345c130 0 215 -62 269 -139l-96 -54c-35 50 -98 89 -173 89c-132 0 -230 -101 -230 -241s98 -242 230 -242c113 0 177 77 195 164h-236v103h364c0 -225 -123 -371 -333 -371z
" />
    <glyph glyph-name="Gdotaccent.alt1" horiz-adv-x="737" 
d="M390 715c-32 0 -59 26 -59 59c0 32 27 59 59 59s58 -27 58 -59c0 -33 -26 -59 -58 -59zM381 -13c-183 0 -340 137 -340 346s157 345 350 345c130 0 215 -62 269 -139l-96 -54c-35 50 -98 89 -173 89c-132 0 -230 -101 -230 -241s98 -242 230 -242c113 0 177 77 195 164
h-236v103h364c0 -225 -123 -371 -333 -371z" />
    <glyph glyph-name="Hbar" unicode="&#x126;" horiz-adv-x="741" 
d="M661 0h-117v291h-347v-291h-117v496h-71v62h71v109h117v-109h347v109h117v-109h70v-62h-70v-496zM197 394h347v102h-347v-102z" />
    <glyph glyph-name="Hcircumflex" unicode="&#x124;" horiz-adv-x="723" 
d="M502 723h-67l-77 96l-75 -96h-66l93 144h96zM652 0h-117v291h-347v-291h-117v667h117v-273h347v273h117v-667z" />
    <glyph glyph-name="uni1E22" unicode="&#x1e22;" horiz-adv-x="723" 
d="M652 0h-117v291h-347v-291h-117v667h117v-273h347v273h117v-667zM361 715c-32 0 -59 26 -59 59c0 32 27 59 59 59s58 -27 58 -59c0 -33 -26 -59 -58 -59z" />
    <glyph glyph-name="Iacute" unicode="&#xcd;" horiz-adv-x="259" 
d="M188 0h-117v667h117v-667zM310 867l-165 -144h-75l140 144h100z" />
    <glyph glyph-name="Ibreve" unicode="&#x12c;" horiz-adv-x="259" 
d="M188 0h-117v667h117v-667zM306 789c-40 -54 -103 -88 -175 -88c-71 0 -135 34 -176 88l48 40c29 -40 73 -66 128 -66c53 0 98 25 127 66z" />
    <glyph glyph-name="Icircumflex" unicode="&#xce;" horiz-adv-x="259" 
d="M273 723h-67l-77 96l-75 -96h-66l93 144h96zM188 0h-117v667h117v-667z" />
    <glyph glyph-name="Idieresis" unicode="&#xcf;" horiz-adv-x="259" 
d="M294 775c0 -33 -27 -59 -59 -59s-59 26 -59 59c0 32 27 58 59 58s59 -26 59 -58zM84 775c0 -33 -26 -59 -58 -59c-33 0 -59 26 -59 59c0 32 26 58 59 58c32 0 58 -26 58 -58zM188 0h-117v667h117v-667z" />
    <glyph glyph-name="Idotaccent" unicode="&#x130;" horiz-adv-x="259" 
d="M188 0h-117v667h117v-667zM131 715c-32 0 -59 26 -59 59c0 32 27 59 59 59s58 -27 58 -59c0 -33 -26 -59 -58 -59z" />
    <glyph glyph-name="Igrave" unicode="&#xcc;" horiz-adv-x="259" 
d="M188 0h-117v667h117v-667zM190 723h-75l-165 144h100z" />
    <glyph glyph-name="Imacron" unicode="&#x12a;" horiz-adv-x="259" 
d="M188 0h-117v667h117v-667zM312 733h-363v62h363v-62z" />
    <glyph glyph-name="Iogonek" unicode="&#x12e;" horiz-adv-x="259" 
d="M202 -101l45 -27c-16 -32 -45 -58 -92 -58c-50 0 -95 26 -95 89c0 37 18 71 48 97h-37v667h117v-667c-48 -24 -73 -55 -73 -93c0 -32 18 -46 40 -46c25 0 39 15 47 38z" />
    <glyph glyph-name="Itilde" unicode="&#x128;" horiz-adv-x="259" 
d="M188 0h-117v667h117v-667zM188 721c-70 0 -77 78 -119 78c-23 0 -42 -22 -42 -72h-57c0 82 36 134 103 134c69 0 77 -78 119 -78c23 0 41 22 41 72h58c0 -82 -36 -134 -103 -134z" />
    <glyph glyph-name="uni1EC8" unicode="&#x1ec8;" horiz-adv-x="259" 
d="M188 0h-117v667h117v-667zM94 752l-40 12c11 34 39 56 77 56c40 0 76 -21 76 -71c0 -21 -6 -35 -17 -52h-48c15 16 21 33 21 50c0 24 -14 35 -32 35c-19 0 -31 -12 -37 -30z" />
    <glyph glyph-name="uni1ECA" unicode="&#x1eca;" horiz-adv-x="259" 
d="M188 0h-117v667h117v-667zM131 -191c-32 0 -59 26 -59 59c0 32 27 59 59 59s58 -27 58 -59c0 -33 -26 -59 -58 -59z" />
    <glyph glyph-name="IJ" unicode="&#x132;" horiz-adv-x="740" 
d="M188 0h-117v667h117v-667zM444 -12c-69 0 -130 20 -177 70l54 89c27 -29 63 -55 114 -55c72 0 117 48 117 121v454h117v-456c0 -152 -96 -223 -225 -223z" />
    <glyph glyph-name="Jcircumflex" unicode="&#x134;" horiz-adv-x="481" 
d="M495 723h-67l-77 96l-75 -96h-66l93 144h96zM185 -12c-69 0 -130 20 -177 70l54 89c27 -29 63 -55 114 -55c72 0 117 48 117 121v454h117v-456c0 -152 -96 -223 -225 -223z" />
    <glyph glyph-name="Kcommaaccent" unicode="&#x136;" horiz-adv-x="630" 
d="M380 -138c0 -58 -33 -111 -78 -143l-39 31c28 17 56 53 61 82c-2 -1 -9 -2 -14 -2c-27 0 -48 21 -48 51c0 31 24 56 55 56c33 0 63 -27 63 -75zM614 0h-144l-224 281l-58 -68v-213h-117v667h117v-318l261 318h145l-271 -315z" />
    <glyph glyph-name="Lacute" unicode="&#x139;" horiz-adv-x="517" 
d="M455 867l-165 -144h-75l140 144h100zM482 0h-411v667h117v-564h294v-103z" />
    <glyph glyph-name="Lcaron" unicode="&#x13d;" horiz-adv-x="517" 
d="M392 605c0 -58 -33 -111 -78 -143l-39 31c28 17 56 53 61 82c-2 -1 -9 -2 -14 -2c-27 0 -48 21 -48 51c0 31 24 56 55 56c33 0 63 -27 63 -75zM482 0h-411v667h117v-564h294v-103z" />
    <glyph glyph-name="Lcommaaccent" unicode="&#x13b;" horiz-adv-x="517" 
d="M323 -138c0 -58 -33 -111 -78 -143l-39 31c28 17 56 53 61 82c-2 -1 -9 -2 -14 -2c-27 0 -48 21 -48 51c0 31 24 56 55 56c33 0 63 -27 63 -75zM482 0h-411v667h117v-564h294v-103z" />
    <glyph glyph-name="Ldot" unicode="&#x13f;" horiz-adv-x="517" 
d="M482 0h-411v667h117v-564h294v-103zM455 341c0 -37 -32 -69 -70 -69s-70 32 -70 69c0 38 32 70 70 70s70 -32 70 -70z" />
    <glyph glyph-name="Lslash" unicode="&#x141;" horiz-adv-x="533" 
d="M9 204v97l78 45v321h117v-253l85 49v-97l-85 -49v-214h294v-103h-411v249z" />
    <glyph glyph-name="Nacute" unicode="&#x143;" horiz-adv-x="720" 
d="M539 867l-165 -144h-75l140 144h100zM649 0h-113l-348 476v-476h-117v667h120l341 -463v463h117v-667z" />
    <glyph glyph-name="Ncaron" unicode="&#x147;" horiz-adv-x="720" 
d="M408 723h-96l-96 144h66l78 -97l74 97h67zM649 0h-113l-348 476v-476h-117v667h120l341 -463v463h117v-667z" />
    <glyph glyph-name="Ncommaaccent" unicode="&#x145;" horiz-adv-x="720" 
d="M425 -138c0 -58 -33 -111 -78 -143l-39 31c28 17 56 53 61 82c-2 -1 -9 -2 -14 -2c-27 0 -48 21 -48 51c0 31 24 56 55 56c33 0 63 -27 63 -75zM649 0h-113l-348 476v-476h-117v667h120l341 -463v463h117v-667z" />
    <glyph glyph-name="Ntilde" unicode="&#xd1;" horiz-adv-x="720" 
d="M416 721c-70 0 -77 78 -119 78c-23 0 -42 -22 -42 -72h-57c0 82 36 134 103 134c69 0 77 -78 119 -78c23 0 41 22 41 72h58c0 -82 -36 -134 -103 -134zM649 0h-113l-348 476v-476h-117v667h120l341 -463v463h117v-667z" />
    <glyph glyph-name="Eng" unicode="&#x14a;" horiz-adv-x="720" 
d="M424 -196c-69 0 -130 20 -178 70l55 89c26 -29 63 -55 114 -55c64 0 108 39 115 99l-342 469v-476h-117v667h120l341 -463v463h117v-641c0 -152 -96 -222 -225 -222z" />
    <glyph glyph-name="Oacute" unicode="&#xd3;" horiz-adv-x="765" 
d="M562 867l-165 -144h-75l140 144h100zM382 -12c-200 0 -341 146 -341 345s141 345 341 345s341 -146 341 -345s-141 -345 -341 -345zM382 92c134 0 221 104 221 241c0 138 -87 241 -221 241c-135 0 -221 -103 -221 -241c0 -137 86 -241 221 -241z" />
    <glyph glyph-name="Obreve" unicode="&#x14e;" horiz-adv-x="765" 
d="M382 -12c-200 0 -341 146 -341 345s141 345 341 345s341 -146 341 -345s-141 -345 -341 -345zM382 92c134 0 221 104 221 241c0 138 -87 241 -221 241c-135 0 -221 -103 -221 -241c0 -137 86 -241 221 -241zM557 789c-40 -54 -103 -88 -175 -88c-71 0 -135 34 -176 88
l48 40c29 -40 73 -66 128 -66c53 0 98 25 127 66z" />
    <glyph glyph-name="Ocircumflex" unicode="&#xd4;" horiz-adv-x="765" 
d="M527 723h-67l-77 96l-75 -96h-66l93 144h96zM382 -12c-200 0 -341 146 -341 345s141 345 341 345s341 -146 341 -345s-141 -345 -341 -345zM382 92c134 0 221 104 221 241c0 138 -87 241 -221 241c-135 0 -221 -103 -221 -241c0 -137 86 -241 221 -241z" />
    <glyph glyph-name="Odieresis" unicode="&#xd6;" horiz-adv-x="765" 
d="M546 775c0 -33 -27 -59 -59 -59s-59 26 -59 59c0 32 27 58 59 58s59 -26 59 -58zM336 775c0 -33 -26 -59 -58 -59c-33 0 -59 26 -59 59c0 32 26 58 59 58c32 0 58 -26 58 -58zM382 -12c-200 0 -341 146 -341 345s141 345 341 345s341 -146 341 -345s-141 -345 -341 -345z
M382 92c134 0 221 104 221 241c0 138 -87 241 -221 241c-135 0 -221 -103 -221 -241c0 -137 86 -241 221 -241z" />
    <glyph glyph-name="Ograve" unicode="&#xd2;" horiz-adv-x="765" 
d="M444 723h-75l-165 144h100zM382 -12c-200 0 -341 146 -341 345s141 345 341 345s341 -146 341 -345s-141 -345 -341 -345zM382 92c134 0 221 104 221 241c0 138 -87 241 -221 241c-135 0 -221 -103 -221 -241c0 -137 86 -241 221 -241z" />
    <glyph glyph-name="Ohungarumlaut" unicode="&#x150;" horiz-adv-x="765" 
d="M443 867l-115 -144h-63l90 144h88zM589 867l-115 -144h-63l90 144h88zM382 -12c-200 0 -341 146 -341 345s141 345 341 345s341 -146 341 -345s-141 -345 -341 -345zM382 92c134 0 221 104 221 241c0 138 -87 241 -221 241c-135 0 -221 -103 -221 -241
c0 -137 86 -241 221 -241z" />
    <glyph glyph-name="Omacron" unicode="&#x14c;" horiz-adv-x="765" 
d="M563 733h-363v62h363v-62zM382 -12c-200 0 -341 146 -341 345s141 345 341 345s341 -146 341 -345s-141 -345 -341 -345zM382 92c134 0 221 104 221 241c0 138 -87 241 -221 241c-135 0 -221 -103 -221 -241c0 -137 86 -241 221 -241z" />
    <glyph glyph-name="Oslash" unicode="&#xd8;" horiz-adv-x="765" 
d="M382 -12c-68 0 -128 16 -179 46l-25 -34h-87l55 76c-66 62 -105 152 -105 257c0 199 141 345 341 345c63 0 121 -15 170 -41l22 30h87l-51 -71c70 -62 113 -155 113 -263c0 -199 -141 -345 -341 -345zM382 92c134 0 221 104 221 241c0 68 -22 129 -60 172l-276 -383
c32 -19 71 -30 115 -30zM161 333c0 -64 18 -121 52 -164l275 379c-31 17 -66 26 -106 26c-135 0 -221 -103 -221 -241z" />
    <glyph glyph-name="Oslashacute" unicode="&#x1fe;" horiz-adv-x="765" 
d="M562 867l-165 -144h-75l140 144h100zM382 -12c-68 0 -128 16 -179 46l-25 -34h-87l55 76c-66 62 -105 152 -105 257c0 199 141 345 341 345c63 0 121 -15 170 -41l22 30h87l-51 -71c70 -62 113 -155 113 -263c0 -199 -141 -345 -341 -345zM382 92c134 0 221 104 221 241
c0 68 -22 129 -60 172l-276 -383c32 -19 71 -30 115 -30zM161 333c0 -64 18 -121 52 -164l275 379c-31 17 -66 26 -106 26c-135 0 -221 -103 -221 -241z" />
    <glyph glyph-name="Otilde" unicode="&#xd5;" horiz-adv-x="765" 
d="M382 -12c-200 0 -341 146 -341 345s141 345 341 345s341 -146 341 -345s-141 -345 -341 -345zM382 92c134 0 221 104 221 241c0 138 -87 241 -221 241c-135 0 -221 -103 -221 -241c0 -137 86 -241 221 -241zM440 721c-70 0 -77 78 -119 78c-23 0 -42 -22 -42 -72h-57
c0 82 36 134 103 134c69 0 77 -78 119 -78c23 0 41 22 41 72h58c0 -82 -36 -134 -103 -134z" />
    <glyph glyph-name="uni1ECC" unicode="&#x1ecc;" horiz-adv-x="765" 
d="M382 -12c-200 0 -341 146 -341 345s141 345 341 345s341 -146 341 -345s-141 -345 -341 -345zM382 92c134 0 221 104 221 241c0 138 -87 241 -221 241c-135 0 -221 -103 -221 -241c0 -137 86 -241 221 -241zM385 -191c-32 0 -59 26 -59 59c0 32 27 59 59 59
s58 -27 58 -59c0 -33 -26 -59 -58 -59z" />
    <glyph glyph-name="uni1ECE" unicode="&#x1ece;" horiz-adv-x="765" 
d="M382 -12c-200 0 -341 146 -341 345s141 345 341 345s341 -146 341 -345s-141 -345 -341 -345zM382 92c134 0 221 104 221 241c0 138 -87 241 -221 241c-135 0 -221 -103 -221 -241c0 -137 86 -241 221 -241zM344 752l-40 12c11 34 39 56 77 56c40 0 76 -21 76 -71
c0 -21 -6 -35 -17 -52h-48c15 16 21 33 21 50c0 24 -14 35 -32 35c-19 0 -31 -12 -37 -30z" />
    <glyph glyph-name="uni1ED0" unicode="&#x1ed0;" horiz-adv-x="765" 
d="M521 682h-67l-77 72l-75 -72h-66l93 108h96zM728 844l-165 -108h-75l140 108h100zM382 -12c-200 0 -341 146 -341 345s141 345 341 345s341 -146 341 -345s-141 -345 -341 -345zM382 92c134 0 221 104 221 241c0 138 -87 241 -221 241c-135 0 -221 -103 -221 -241
c0 -137 86 -241 221 -241z" />
    <glyph glyph-name="uni1ED2" unicode="&#x1ed2;" horiz-adv-x="765" 
d="M520 682h-67l-77 72l-75 -72h-66l93 108h96zM382 -12c-200 0 -341 146 -341 345s141 345 341 345s341 -146 341 -345s-141 -345 -341 -345zM382 92c134 0 221 104 221 241c0 138 -87 241 -221 241c-135 0 -221 -103 -221 -241c0 -137 86 -241 221 -241zM267 736h-75
l-165 108h100z" />
    <glyph glyph-name="uni1ED4" unicode="&#x1ed4;" horiz-adv-x="765" 
d="M519 682h-67l-77 72l-75 -72h-66l93 108h96zM382 -12c-200 0 -341 146 -341 345s141 345 341 345s341 -146 341 -345s-141 -345 -341 -345zM382 92c134 0 221 104 221 241c0 138 -87 241 -221 241c-135 0 -221 -103 -221 -241c0 -137 86 -241 221 -241zM489 785l-40 9
c11 26 39 42 77 42c40 0 76 -15 76 -53c0 -16 -6 -26 -17 -39h-48c15 12 21 25 21 38c0 18 -14 26 -32 26c-19 0 -31 -9 -37 -23z" />
    <glyph glyph-name="uni1ED6" unicode="&#x1ed6;" horiz-adv-x="765" 
d="M524 678h-67l-77 48l-75 -48h-66l93 72h96zM382 -12c-200 0 -341 146 -341 345s141 345 341 345s341 -146 341 -345s-141 -345 -341 -345zM382 92c134 0 221 104 221 241c0 138 -87 241 -221 241c-135 0 -221 -103 -221 -241c0 -137 86 -241 221 -241zM437 757
c-70 0 -77 39 -119 39c-23 0 -42 -11 -42 -36h-57c0 41 36 67 103 67c69 0 77 -39 119 -39c23 0 41 11 41 36h58c0 -41 -36 -67 -103 -67z" />
    <glyph glyph-name="uni1ED8" unicode="&#x1ed8;" horiz-adv-x="765" 
d="M527 723h-67l-77 96l-75 -96h-66l93 144h96zM382 -12c-200 0 -341 146 -341 345s141 345 341 345s341 -146 341 -345s-141 -345 -341 -345zM382 92c134 0 221 104 221 241c0 138 -87 241 -221 241c-135 0 -221 -103 -221 -241c0 -137 86 -241 221 -241zM385 -191
c-32 0 -59 26 -59 59c0 32 27 59 59 59s58 -27 58 -59c0 -33 -26 -59 -58 -59z" />
    <glyph glyph-name="Ohorn" unicode="&#x1a0;" horiz-adv-x="765" 
d="M382 -12c-200 0 -341 146 -341 345s141 345 341 345c105 0 194 -41 255 -109c22 18 40 46 45 69c-2 -1 -8 -2 -13 -2c-25 0 -44 20 -44 47c0 28 22 51 50 51c30 0 57 -25 57 -69c0 -52 -28 -100 -68 -130c37 -56 59 -125 59 -202c0 -199 -141 -345 -341 -345zM382 92
c134 0 221 104 221 241c0 138 -87 241 -221 241c-135 0 -221 -103 -221 -241c0 -137 86 -241 221 -241z" />
    <glyph glyph-name="uni1EDA" unicode="&#x1eda;" horiz-adv-x="765" 
d="M562 867l-165 -144h-75l140 144h100zM382 -12c-200 0 -341 146 -341 345s141 345 341 345c105 0 194 -41 255 -109c22 18 40 46 45 69c-2 -1 -8 -2 -13 -2c-25 0 -44 20 -44 47c0 28 22 51 50 51c30 0 57 -25 57 -69c0 -52 -28 -100 -68 -130c37 -56 59 -125 59 -202
c0 -199 -141 -345 -341 -345zM382 92c134 0 221 104 221 241c0 138 -87 241 -221 241c-135 0 -221 -103 -221 -241c0 -137 86 -241 221 -241z" />
    <glyph glyph-name="uni1EDC" unicode="&#x1edc;" horiz-adv-x="765" 
d="M382 -12c-200 0 -341 146 -341 345s141 345 341 345c105 0 194 -41 255 -109c22 18 40 46 45 69c-2 -1 -8 -2 -13 -2c-25 0 -44 20 -44 47c0 28 22 51 50 51c30 0 57 -25 57 -69c0 -52 -28 -100 -68 -130c37 -56 59 -125 59 -202c0 -199 -141 -345 -341 -345zM382 92
c134 0 221 104 221 241c0 138 -87 241 -221 241c-135 0 -221 -103 -221 -241c0 -137 86 -241 221 -241zM444 723h-75l-165 144h100z" />
    <glyph glyph-name="uni1EDE" unicode="&#x1ede;" horiz-adv-x="765" 
d="M382 -12c-200 0 -341 146 -341 345s141 345 341 345c105 0 194 -41 255 -109c22 18 40 46 45 69c-2 -1 -8 -2 -13 -2c-25 0 -44 20 -44 47c0 28 22 51 50 51c30 0 57 -25 57 -69c0 -52 -28 -100 -68 -130c37 -56 59 -125 59 -202c0 -199 -141 -345 -341 -345zM382 92
c134 0 221 104 221 241c0 138 -87 241 -221 241c-135 0 -221 -103 -221 -241c0 -137 86 -241 221 -241zM345 752l-40 12c11 34 39 56 77 56c40 0 76 -21 76 -71c0 -21 -6 -35 -17 -52h-48c15 16 21 33 21 50c0 24 -14 35 -32 35c-19 0 -31 -12 -37 -30z" />
    <glyph glyph-name="uni1EE0" unicode="&#x1ee0;" horiz-adv-x="765" 
d="M382 -12c-200 0 -341 146 -341 345s141 345 341 345c105 0 194 -41 255 -109c22 18 40 46 45 69c-2 -1 -8 -2 -13 -2c-25 0 -44 20 -44 47c0 28 22 51 50 51c30 0 57 -25 57 -69c0 -52 -28 -100 -68 -130c37 -56 59 -125 59 -202c0 -199 -141 -345 -341 -345zM382 92
c134 0 221 104 221 241c0 138 -87 241 -221 241c-135 0 -221 -103 -221 -241c0 -137 86 -241 221 -241zM440 721c-70 0 -77 78 -119 78c-23 0 -42 -22 -42 -72h-57c0 82 36 134 103 134c69 0 77 -78 119 -78c23 0 41 22 41 72h58c0 -82 -36 -134 -103 -134z" />
    <glyph glyph-name="uni1EE2" unicode="&#x1ee2;" horiz-adv-x="765" 
d="M382 -12c-200 0 -341 146 -341 345s141 345 341 345c105 0 194 -41 255 -109c22 18 40 46 45 69c-2 -1 -8 -2 -13 -2c-25 0 -44 20 -44 47c0 28 22 51 50 51c30 0 57 -25 57 -69c0 -52 -28 -100 -68 -130c37 -56 59 -125 59 -202c0 -199 -141 -345 -341 -345zM382 92
c134 0 221 104 221 241c0 138 -87 241 -221 241c-135 0 -221 -103 -221 -241c0 -137 86 -241 221 -241zM385 -191c-32 0 -59 26 -59 59c0 32 27 59 59 59s58 -27 58 -59c0 -33 -26 -59 -58 -59z" />
    <glyph glyph-name="OE" unicode="&#x152;" horiz-adv-x="1093" 
d="M1045 0h-457v96c-47 -72 -135 -108 -217 -108c-194 0 -330 145 -330 345s136 344 330 344c82 0 170 -36 217 -107v97h457v-103h-340v-173h333v-103h-333v-185h340v-103zM588 227v212c-35 89 -111 134 -202 134c-139 0 -225 -102 -225 -240s86 -241 225 -241
c91 0 167 47 202 135z" />
    <glyph glyph-name="uni1E56" unicode="&#x1e56;" horiz-adv-x="608" 
d="M188 0h-117v667h293c140 0 218 -96 218 -209s-79 -209 -218 -209h-176v-249zM348 352c66 0 114 42 114 106s-48 106 -114 106h-160v-212h160zM304 715c-32 0 -59 26 -59 59c0 32 27 59 59 59s58 -27 58 -59c0 -33 -26 -59 -58 -59z" />
    <glyph glyph-name="Racute" unicode="&#x154;" horiz-adv-x="628" 
d="M500 867l-165 -144h-75l140 144h100zM587 0h-135l-148 249h-116v-249h-117v667h293c132 0 218 -86 218 -209c0 -119 -78 -183 -158 -196zM348 352c66 0 114 42 114 106s-48 106 -114 106h-160v-212h160z" />
    <glyph glyph-name="Rcaron" unicode="&#x158;" horiz-adv-x="628" 
d="M365 723h-96l-96 144h66l78 -97l74 97h67zM587 0h-135l-148 249h-116v-249h-117v667h293c132 0 218 -86 218 -209c0 -119 -78 -183 -158 -196zM348 352c66 0 114 42 114 106s-48 106 -114 106h-160v-212h160z" />
    <glyph glyph-name="Rcommaaccent" unicode="&#x156;" horiz-adv-x="628" 
d="M381 -138c0 -58 -33 -111 -78 -143l-39 31c28 17 56 53 61 82c-2 -1 -9 -2 -14 -2c-27 0 -48 21 -48 51c0 31 24 56 55 56c33 0 63 -27 63 -75zM587 0h-135l-148 249h-116v-249h-117v667h293c132 0 218 -86 218 -209c0 -119 -78 -183 -158 -196zM348 352
c66 0 114 42 114 106s-48 106 -114 106h-160v-212h160z" />
    <glyph glyph-name="Sacute" unicode="&#x15a;" horiz-adv-x="594" 
d="M474 867l-165 -144h-75l140 144h100zM299 -12c-123 0 -212 43 -271 106l65 90c46 -49 118 -92 211 -92c96 0 134 47 134 91c0 140 -389 53 -389 299c0 110 97 195 243 195c104 0 188 -33 250 -93l-67 -87c-52 52 -123 76 -193 76c-69 0 -113 -33 -113 -83
c0 -124 388 -47 388 -296c0 -111 -78 -206 -258 -206z" />
    <glyph glyph-name="Scaron" unicode="&#x160;" horiz-adv-x="594" 
d="M339 723h-96l-96 144h66l78 -97l74 97h67zM299 -12c-123 0 -212 43 -271 106l65 90c46 -49 118 -92 211 -92c96 0 134 47 134 91c0 140 -389 53 -389 299c0 110 97 195 243 195c104 0 188 -33 250 -93l-67 -87c-52 52 -123 76 -193 76c-69 0 -113 -33 -113 -83
c0 -124 388 -47 388 -296c0 -111 -78 -206 -258 -206z" />
    <glyph glyph-name="Scircumflex" unicode="&#x15c;" horiz-adv-x="594" 
d="M432 723h-67l-77 96l-75 -96h-66l93 144h96zM299 -12c-123 0 -212 43 -271 106l65 90c46 -49 118 -92 211 -92c96 0 134 47 134 91c0 140 -389 53 -389 299c0 110 97 195 243 195c104 0 188 -33 250 -93l-67 -87c-52 52 -123 76 -193 76c-69 0 -113 -33 -113 -83
c0 -124 388 -47 388 -296c0 -111 -78 -206 -258 -206z" />
    <glyph glyph-name="Scedilla" unicode="&#x15e;" horiz-adv-x="594" 
d="M290 -194c-46 0 -86 15 -106 31l22 46c25 -20 54 -29 81 -29c29 0 56 12 56 36c0 19 -11 30 -33 30c-13 0 -26 -6 -34 -15l-41 23l23 62c-102 8 -178 48 -230 104l65 90c46 -49 118 -92 211 -92c96 0 134 47 134 91c0 140 -389 53 -389 299c0 110 97 195 243 195
c104 0 188 -33 250 -93l-67 -87c-52 52 -123 76 -193 76c-69 0 -113 -33 -113 -83c0 -124 388 -47 388 -296c0 -109 -75 -201 -246 -206l-16 -41c10 7 23 11 36 11c38 0 67 -28 67 -69c0 -51 -49 -83 -108 -83z" />
    <glyph glyph-name="Scommaaccent" unicode="&#x218;" horiz-adv-x="594" 
d="M358 -138c0 -58 -33 -111 -78 -143l-39 31c28 17 56 53 61 82c-2 -1 -9 -2 -14 -2c-27 0 -48 21 -48 51c0 31 24 56 55 56c33 0 63 -27 63 -75zM299 -12c-123 0 -212 43 -271 106l65 90c46 -49 118 -92 211 -92c96 0 134 47 134 91c0 140 -389 53 -389 299
c0 110 97 195 243 195c104 0 188 -33 250 -93l-67 -87c-52 52 -123 76 -193 76c-69 0 -113 -33 -113 -83c0 -124 388 -47 388 -296c0 -111 -78 -206 -258 -206z" />
    <glyph glyph-name="uni1E60" unicode="&#x1e60;" horiz-adv-x="594" 
d="M299 -12c-123 0 -212 43 -271 106l65 90c46 -49 118 -92 211 -92c96 0 134 47 134 91c0 140 -389 53 -389 299c0 110 97 195 243 195c104 0 188 -33 250 -93l-67 -87c-52 52 -123 76 -193 76c-69 0 -113 -33 -113 -83c0 -124 388 -47 388 -296c0 -111 -78 -206 -258 -206
zM297 715c-32 0 -59 26 -59 59c0 32 27 59 59 59s58 -27 58 -59c0 -33 -26 -59 -58 -59z" />
    <glyph glyph-name="Tbar" unicode="&#x166;" horiz-adv-x="577" 
d="M347 0h-117v276h-141v62h141v226h-202v103h521v-103h-202v-226h141v-62h-141v-276z" />
    <glyph glyph-name="Tcaron" unicode="&#x164;" horiz-adv-x="577" 
d="M338 723h-96l-96 144h66l78 -97l74 97h67zM347 0h-117v564h-202v103h521v-103h-202v-564z" />
    <glyph glyph-name="Tcommaaccent" unicode="&#x162;" horiz-adv-x="577" 
d="M353 -138c0 -58 -33 -111 -78 -143l-39 31c28 17 56 53 61 82c-2 -1 -9 -2 -14 -2c-27 0 -48 21 -48 51c0 31 24 56 55 56c33 0 63 -27 63 -75zM347 0h-117v564h-202v103h521v-103h-202v-564z" />
    <glyph glyph-name="uni021A" unicode="&#x21a;" horiz-adv-x="577" 
d="M353 -138c0 -58 -33 -111 -78 -143l-39 31c28 17 56 53 61 82c-2 -1 -9 -2 -14 -2c-27 0 -48 21 -48 51c0 31 24 56 55 56c33 0 63 -27 63 -75zM347 0h-117v564h-202v103h521v-103h-202v-564z" />
    <glyph glyph-name="uni1E6A" unicode="&#x1e6a;" horiz-adv-x="577" 
d="M347 0h-117v564h-202v103h521v-103h-202v-564zM288 715c-32 0 -59 26 -59 59c0 32 27 59 59 59s58 -27 58 -59c0 -33 -26 -59 -58 -59z" />
    <glyph glyph-name="Uacute" unicode="&#xda;" horiz-adv-x="719" 
d="M539 867l-165 -144h-75l140 144h100zM360 -12c-194 0 -289 111 -289 275v404h118v-400c0 -106 59 -175 171 -175c111 0 170 69 170 175v400h118v-403c0 -166 -95 -276 -288 -276z" />
    <glyph glyph-name="Ubreve" unicode="&#x16c;" horiz-adv-x="719" 
d="M360 -12c-194 0 -289 111 -289 275v404h118v-400c0 -106 59 -175 171 -175c111 0 170 69 170 175v400h118v-403c0 -166 -95 -276 -288 -276zM537 789c-40 -54 -103 -88 -175 -88c-71 0 -135 34 -176 88l48 40c29 -40 73 -66 128 -66c53 0 98 25 127 66z" />
    <glyph glyph-name="Ucircumflex" unicode="&#xdb;" horiz-adv-x="719" 
d="M504 723h-67l-77 96l-75 -96h-66l93 144h96zM360 -12c-194 0 -289 111 -289 275v404h118v-400c0 -106 59 -175 171 -175c111 0 170 69 170 175v400h118v-403c0 -166 -95 -276 -288 -276z" />
    <glyph glyph-name="Udieresis" unicode="&#xdc;" horiz-adv-x="719" 
d="M525 775c0 -33 -27 -59 -59 -59s-59 26 -59 59c0 32 27 58 59 58s59 -26 59 -58zM315 775c0 -33 -26 -59 -58 -59c-33 0 -59 26 -59 59c0 32 26 58 59 58c32 0 58 -26 58 -58zM360 -12c-194 0 -289 111 -289 275v404h118v-400c0 -106 59 -175 171 -175
c111 0 170 69 170 175v400h118v-403c0 -166 -95 -276 -288 -276z" />
    <glyph glyph-name="Ugrave" unicode="&#xd9;" horiz-adv-x="719" 
d="M360 -12c-194 0 -289 111 -289 275v404h118v-400c0 -106 59 -175 171 -175c111 0 170 69 170 175v400h118v-403c0 -166 -95 -276 -288 -276zM421 723h-75l-165 144h100z" />
    <glyph glyph-name="Uhungarumlaut" unicode="&#x170;" horiz-adv-x="719" 
d="M360 -12c-194 0 -289 111 -289 275v404h118v-400c0 -106 59 -175 171 -175c111 0 170 69 170 175v400h118v-403c0 -166 -95 -276 -288 -276zM422 867l-115 -144h-63l90 144h88zM568 867l-115 -144h-63l90 144h88z" />
    <glyph glyph-name="Umacron" unicode="&#x16a;" horiz-adv-x="719" 
d="M360 -12c-194 0 -289 111 -289 275v404h118v-400c0 -106 59 -175 171 -175c111 0 170 69 170 175v400h118v-403c0 -166 -95 -276 -288 -276zM542 733h-363v62h363v-62z" />
    <glyph glyph-name="Uogonek" unicode="&#x172;" horiz-adv-x="719" 
d="M360 -12c-194 0 -289 111 -289 275v404h118v-400c0 -106 59 -175 171 -175c111 0 170 69 170 175v400h118v-403c0 -134 -62 -232 -188 -264c-48 -24 -73 -55 -73 -93c0 -32 18 -46 40 -46c25 0 39 15 47 38l45 -27c-16 -32 -45 -58 -92 -58c-50 0 -95 26 -95 89
c0 32 13 61 36 85h-8z" />
    <glyph glyph-name="Uring" unicode="&#x16e;" horiz-adv-x="719" 
d="M361 703c-56 0 -102 46 -102 102s46 103 102 103s101 -47 101 -103s-45 -102 -101 -102zM361 753c29 0 51 24 51 52c0 29 -22 52 -51 52c-28 0 -52 -23 -52 -52c0 -28 24 -52 52 -52zM360 -12c-194 0 -289 111 -289 275v404h118v-400c0 -106 59 -175 171 -175
c111 0 170 69 170 175v400h118v-403c0 -166 -95 -276 -288 -276z" />
    <glyph glyph-name="Utilde" unicode="&#x168;" horiz-adv-x="719" 
d="M360 -12c-194 0 -289 111 -289 275v404h118v-400c0 -106 59 -175 171 -175c111 0 170 69 170 175v400h118v-403c0 -166 -95 -276 -288 -276zM419 721c-70 0 -77 78 -119 78c-23 0 -42 -22 -42 -72h-57c0 82 36 134 103 134c69 0 77 -78 119 -78c23 0 41 22 41 72h58
c0 -82 -36 -134 -103 -134z" />
    <glyph glyph-name="uni1EE4" unicode="&#x1ee4;" horiz-adv-x="719" 
d="M360 -12c-194 0 -289 111 -289 275v404h118v-400c0 -106 59 -175 171 -175c111 0 170 69 170 175v400h118v-403c0 -166 -95 -276 -288 -276zM362 -191c-32 0 -59 26 -59 59c0 32 27 59 59 59s58 -27 58 -59c0 -33 -26 -59 -58 -59z" />
    <glyph glyph-name="Uhorn" unicode="&#x1af;" horiz-adv-x="719" 
d="M760 727c0 -61 -40 -123 -112 -155v-308c0 -166 -95 -276 -288 -276c-194 0 -289 111 -289 275v404h118v-400c0 -106 59 -175 171 -175c111 0 170 69 170 175v400h118v-48c31 18 58 50 62 82c-2 -1 -8 -2 -13 -2c-25 0 -44 19 -44 47c0 27 22 50 50 50
c30 0 57 -25 57 -69z" />
    <glyph glyph-name="uni1EE6" unicode="&#x1ee6;" horiz-adv-x="719" 
d="M360 -12c-194 0 -289 111 -289 275v404h118v-400c0 -106 59 -175 171 -175c111 0 170 69 170 175v400h118v-403c0 -166 -95 -276 -288 -276zM324 752l-40 12c11 34 39 56 77 56c40 0 76 -21 76 -71c0 -21 -6 -35 -17 -52h-48c15 16 21 33 21 50c0 24 -14 35 -32 35
c-19 0 -31 -12 -37 -30z" />
    <glyph glyph-name="uni1EE8" unicode="&#x1ee8;" horiz-adv-x="719" 
d="M539 867l-165 -144h-75l140 144h100zM760 727c0 -61 -40 -123 -112 -155v-308c0 -166 -95 -276 -288 -276c-194 0 -289 111 -289 275v404h118v-400c0 -106 59 -175 171 -175c111 0 170 69 170 175v400h118v-48c31 18 58 50 62 82c-2 -1 -8 -2 -13 -2c-25 0 -44 19 -44 47
c0 27 22 50 50 50c30 0 57 -25 57 -69z" />
    <glyph glyph-name="uni1EEA" unicode="&#x1eea;" horiz-adv-x="719" 
d="M421 723h-75l-165 144h100zM760 727c0 -61 -40 -123 -112 -155v-308c0 -166 -95 -276 -288 -276c-194 0 -289 111 -289 275v404h118v-400c0 -106 59 -175 171 -175c111 0 170 69 170 175v400h118v-48c31 18 58 50 62 82c-2 -1 -8 -2 -13 -2c-25 0 -44 19 -44 47
c0 27 22 50 50 50c30 0 57 -25 57 -69z" />
    <glyph glyph-name="uni1EEC" unicode="&#x1eec;" horiz-adv-x="719" 
d="M324 752l-40 12c11 34 39 56 77 56c40 0 76 -21 76 -71c0 -21 -6 -35 -17 -52h-48c15 16 21 33 21 50c0 24 -14 35 -32 35c-19 0 -31 -12 -37 -30zM760 727c0 -61 -40 -123 -112 -155v-308c0 -166 -95 -276 -288 -276c-194 0 -289 111 -289 275v404h118v-400
c0 -106 59 -175 171 -175c111 0 170 69 170 175v400h118v-48c31 18 58 50 62 82c-2 -1 -8 -2 -13 -2c-25 0 -44 19 -44 47c0 27 22 50 50 50c30 0 57 -25 57 -69z" />
    <glyph glyph-name="uni1EEE" unicode="&#x1eee;" horiz-adv-x="719" 
d="M760 727c0 -61 -40 -123 -112 -155v-308c0 -166 -95 -276 -288 -276c-194 0 -289 111 -289 275v404h118v-400c0 -106 59 -175 171 -175c111 0 170 69 170 175v400h118v-48c31 18 58 50 62 82c-2 -1 -8 -2 -13 -2c-25 0 -44 19 -44 47c0 27 22 50 50 50
c30 0 57 -25 57 -69zM418 721c-70 0 -77 78 -119 78c-23 0 -42 -22 -42 -72h-57c0 82 36 134 103 134c69 0 77 -78 119 -78c23 0 41 22 41 72h58c0 -82 -36 -134 -103 -134z" />
    <glyph glyph-name="uni1EF0" unicode="&#x1ef0;" horiz-adv-x="719" 
d="M362 -191c-32 0 -59 26 -59 59c0 32 27 59 59 59s58 -27 58 -59c0 -33 -26 -59 -58 -59zM760 727c0 -61 -40 -123 -112 -155v-308c0 -166 -95 -276 -288 -276c-194 0 -289 111 -289 275v404h118v-400c0 -106 59 -175 171 -175c111 0 170 69 170 175v400h118v-48
c31 18 58 50 62 82c-2 -1 -8 -2 -13 -2c-25 0 -44 19 -44 47c0 27 22 50 50 50c30 0 57 -25 57 -69z" />
    <glyph glyph-name="Wacute" unicode="&#x1e82;" horiz-adv-x="903" 
d="M630 867l-165 -144h-75l140 144h100zM706 0h-125l-130 492l-129 -492h-125l-191 667h131l130 -514l138 514h93l138 -514l129 514h131z" />
    <glyph glyph-name="Wcircumflex" unicode="&#x174;" horiz-adv-x="903" 
d="M594 723h-67l-77 96l-75 -96h-66l93 144h96zM706 0h-125l-130 492l-129 -492h-125l-191 667h131l130 -514l138 514h93l138 -514l129 514h131z" />
    <glyph glyph-name="Wdieresis" unicode="&#x1e84;" horiz-adv-x="903" 
d="M615 775c0 -33 -27 -59 -59 -59s-59 26 -59 59c0 32 27 58 59 58s59 -26 59 -58zM405 775c0 -33 -26 -59 -58 -59c-33 0 -59 26 -59 59c0 32 26 58 59 58c32 0 58 -26 58 -58zM706 0h-125l-130 492l-129 -492h-125l-191 667h131l130 -514l138 514h93l138 -514l129 514
h131z" />
    <glyph glyph-name="Wgrave" unicode="&#x1e80;" horiz-adv-x="903" 
d="M706 0h-125l-130 492l-129 -492h-125l-191 667h131l130 -514l138 514h93l138 -514l129 514h131zM512 723h-75l-165 144h100z" />
    <glyph glyph-name="Yacute" unicode="&#xdd;" horiz-adv-x="637" 
d="M377 0h-117v277l-259 390h134l184 -286l182 286h134l-258 -390v-277zM497 867l-165 -144h-75l140 144h100z" />
    <glyph glyph-name="Ycircumflex" unicode="&#x176;" horiz-adv-x="637" 
d="M462 723h-67l-77 96l-75 -96h-66l93 144h96zM377 0h-117v277l-259 390h134l184 -286l182 286h134l-258 -390v-277z" />
    <glyph glyph-name="Ydieresis" unicode="&#x178;" horiz-adv-x="637" 
d="M483 775c0 -33 -27 -59 -59 -59s-59 26 -59 59c0 32 27 58 59 58s59 -26 59 -58zM273 775c0 -33 -26 -59 -58 -59c-33 0 -59 26 -59 59c0 32 26 58 59 58c32 0 58 -26 58 -58zM377 0h-117v277l-259 390h134l184 -286l182 286h134l-258 -390v-277z" />
    <glyph glyph-name="Ygrave" unicode="&#x1ef2;" horiz-adv-x="637" 
d="M377 0h-117v277l-259 390h134l184 -286l182 286h134l-258 -390v-277zM380 723h-75l-165 144h100z" />
    <glyph glyph-name="Zacute" unicode="&#x179;" horiz-adv-x="589" 
d="M473 867l-165 -144h-75l140 144h100zM544 0h-500v95l341 469h-341v103h493v-95l-341 -469h348v-103z" />
    <glyph glyph-name="Zcaron" unicode="&#x17d;" horiz-adv-x="589" 
d="M339 723h-96l-96 144h66l78 -97l74 97h67zM544 0h-500v95l341 469h-341v103h493v-95l-341 -469h348v-103z" />
    <glyph glyph-name="Zdotaccent" unicode="&#x17b;" horiz-adv-x="589" 
d="M544 0h-500v95l341 469h-341v103h493v-95l-341 -469h348v-103zM290 715c-32 0 -59 26 -59 59c0 32 27 59 59 59s58 -27 58 -59c0 -33 -26 -59 -58 -59z" />
    <glyph glyph-name="Eth" unicode="&#xd0;" horiz-adv-x="736" 
d="M345 0h-248v285h-88v86h88v296h248c208 0 349 -138 349 -334s-141 -333 -349 -333zM345 103c145 0 229 104 229 230c0 129 -80 231 -229 231h-131v-193h158v-86h-158v-182h131z" />
    <glyph glyph-name="Thorn" unicode="&#xde;" horiz-adv-x="608" 
d="M188 0h-117v667h117v-113h176c140 0 218 -96 218 -210c0 -113 -79 -207 -218 -207h-176v-137zM348 240c66 0 114 41 114 105c0 63 -48 106 -114 106h-160v-211h160z" />
    <glyph glyph-name="aacute" unicode="&#xe1;" horiz-adv-x="536" 
d="M468 0h-105v52c-36 -41 -92 -64 -156 -64c-79 0 -168 53 -168 160c0 111 89 157 168 157c65 0 121 -21 156 -62v72c0 56 -46 90 -113 90c-54 0 -101 -20 -143 -61l-43 73c56 53 126 78 203 78c107 0 201 -45 201 -175v-320zM248 60c46 0 91 17 115 50v73
c-24 33 -69 50 -115 50c-59 0 -103 -34 -103 -87c0 -52 44 -86 103 -86zM446 700l-165 -144h-75l140 144h100z" />
    <glyph glyph-name="abreve" unicode="&#x103;" horiz-adv-x="536" 
d="M468 0h-105v52c-36 -41 -92 -64 -156 -64c-79 0 -168 53 -168 160c0 111 89 157 168 157c65 0 121 -21 156 -62v72c0 56 -46 90 -113 90c-54 0 -101 -20 -143 -61l-43 73c56 53 126 78 203 78c107 0 201 -45 201 -175v-320zM248 60c46 0 91 17 115 50v73
c-24 33 -69 50 -115 50c-59 0 -103 -34 -103 -87c0 -52 44 -86 103 -86zM443 622c-40 -54 -103 -88 -175 -88c-71 0 -135 34 -176 88l48 40c29 -40 73 -66 128 -66c53 0 98 25 127 66z" />
    <glyph glyph-name="acircumflex" unicode="&#xe2;" horiz-adv-x="536" 
d="M468 0h-105v52c-36 -41 -92 -64 -156 -64c-79 0 -168 53 -168 160c0 111 89 157 168 157c65 0 121 -21 156 -62v72c0 56 -46 90 -113 90c-54 0 -101 -20 -143 -61l-43 73c56 53 126 78 203 78c107 0 201 -45 201 -175v-320zM248 60c46 0 91 17 115 50v73
c-24 33 -69 50 -115 50c-59 0 -103 -34 -103 -87c0 -52 44 -86 103 -86zM410 556h-67l-77 96l-75 -96h-66l93 144h96z" />
    <glyph glyph-name="adieresis" unicode="&#xe4;" horiz-adv-x="536" 
d="M468 0h-105v52c-36 -41 -92 -64 -156 -64c-79 0 -168 53 -168 160c0 111 89 157 168 157c65 0 121 -21 156 -62v72c0 56 -46 90 -113 90c-54 0 -101 -20 -143 -61l-43 73c56 53 126 78 203 78c107 0 201 -45 201 -175v-320zM248 60c46 0 91 17 115 50v73
c-24 33 -69 50 -115 50c-59 0 -103 -34 -103 -87c0 -52 44 -86 103 -86zM431 608c0 -33 -27 -59 -59 -59s-59 26 -59 59c0 32 27 58 59 58s59 -26 59 -58zM221 608c0 -33 -26 -59 -58 -59c-33 0 -59 26 -59 59c0 32 26 58 59 58c32 0 58 -26 58 -58z" />
    <glyph glyph-name="agrave" unicode="&#xe0;" horiz-adv-x="536" 
d="M468 0h-105v52c-36 -41 -92 -64 -156 -64c-79 0 -168 53 -168 160c0 111 89 157 168 157c65 0 121 -21 156 -62v72c0 56 -46 90 -113 90c-54 0 -101 -20 -143 -61l-43 73c56 53 126 78 203 78c107 0 201 -45 201 -175v-320zM248 60c46 0 91 17 115 50v73
c-24 33 -69 50 -115 50c-59 0 -103 -34 -103 -87c0 -52 44 -86 103 -86zM328 556h-75l-165 144h100z" />
    <glyph glyph-name="amacron" unicode="&#x101;" horiz-adv-x="536" 
d="M468 0h-105v52c-36 -41 -92 -64 -156 -64c-79 0 -168 53 -168 160c0 111 89 157 168 157c65 0 121 -21 156 -62v72c0 56 -46 90 -113 90c-54 0 -101 -20 -143 -61l-43 73c56 53 126 78 203 78c107 0 201 -45 201 -175v-320zM248 60c46 0 91 17 115 50v73
c-24 33 -69 50 -115 50c-59 0 -103 -34 -103 -87c0 -52 44 -86 103 -86zM449 566h-363v62h363v-62z" />
    <glyph glyph-name="aogonek" unicode="&#x105;" horiz-adv-x="536" 
d="M482 -101l45 -27c-16 -32 -45 -58 -92 -58c-50 0 -95 26 -95 89c0 37 18 71 48 97h-25v52c-36 -41 -92 -64 -156 -64c-79 0 -168 53 -168 160c0 111 89 157 168 157c65 0 121 -21 156 -62v72c0 56 -46 90 -113 90c-54 0 -101 -20 -143 -61l-43 73c56 53 126 78 203 78
c107 0 201 -45 201 -175v-320c-48 -24 -73 -55 -73 -93c0 -32 18 -46 40 -46c25 0 39 15 47 38zM248 60c46 0 91 17 115 50v73c-24 33 -69 50 -115 50c-59 0 -103 -34 -103 -87c0 -52 44 -86 103 -86z" />
    <glyph glyph-name="aring" unicode="&#xe5;" horiz-adv-x="536" 
d="M468 0h-105v52c-36 -41 -92 -64 -156 -64c-79 0 -168 53 -168 160c0 111 89 157 168 157c65 0 121 -21 156 -62v72c0 56 -46 90 -113 90c-54 0 -101 -20 -143 -61l-43 73c56 53 126 78 203 78c107 0 201 -45 201 -175v-320zM248 60c46 0 91 17 115 50v73
c-24 33 -69 50 -115 50c-59 0 -103 -34 -103 -87c0 -52 44 -86 103 -86zM268 536c-56 0 -102 46 -102 102s46 103 102 103s101 -47 101 -103s-45 -102 -101 -102zM268 586c29 0 51 24 51 52c0 29 -22 52 -51 52c-28 0 -52 -23 -52 -52c0 -28 24 -52 52 -52z" />
    <glyph glyph-name="atilde" unicode="&#xe3;" horiz-adv-x="536" 
d="M468 0h-105v52c-36 -41 -92 -64 -156 -64c-79 0 -168 53 -168 160c0 111 89 157 168 157c65 0 121 -21 156 -62v72c0 56 -46 90 -113 90c-54 0 -101 -20 -143 -61l-43 73c56 53 126 78 203 78c107 0 201 -45 201 -175v-320zM248 60c46 0 91 17 115 50v73
c-24 33 -69 50 -115 50c-59 0 -103 -34 -103 -87c0 -52 44 -86 103 -86zM325 554c-70 0 -77 78 -119 78c-23 0 -42 -22 -42 -72h-57c0 82 36 134 103 134c69 0 77 -78 119 -78c23 0 41 22 41 72h58c0 -82 -36 -134 -103 -134z" />
    <glyph glyph-name="uni1EA1" unicode="&#x1ea1;" horiz-adv-x="536" 
d="M468 0h-105v52c-36 -41 -92 -64 -156 -64c-79 0 -168 53 -168 160c0 111 89 157 168 157c65 0 121 -21 156 -62v72c0 56 -46 90 -113 90c-54 0 -101 -20 -143 -61l-43 73c56 53 126 78 203 78c107 0 201 -45 201 -175v-320zM248 60c46 0 91 17 115 50v73
c-24 33 -69 50 -115 50c-59 0 -103 -34 -103 -87c0 -52 44 -86 103 -86zM268 -191c-32 0 -59 26 -59 59c0 32 27 59 59 59s58 -27 58 -59c0 -33 -26 -59 -58 -59z" />
    <glyph glyph-name="uni1EA3" unicode="&#x1ea3;" horiz-adv-x="536" 
d="M468 0h-105v52c-36 -41 -92 -64 -156 -64c-79 0 -168 53 -168 160c0 111 89 157 168 157c65 0 121 -21 156 -62v72c0 56 -46 90 -113 90c-54 0 -101 -20 -143 -61l-43 73c56 53 126 78 203 78c107 0 201 -45 201 -175v-320zM248 60c46 0 91 17 115 50v73
c-24 33 -69 50 -115 50c-59 0 -103 -34 -103 -87c0 -52 44 -86 103 -86zM231 582l-40 12c11 34 39 56 77 56c40 0 76 -21 76 -71c0 -21 -6 -35 -17 -52h-48c15 16 21 33 21 50c0 24 -14 35 -32 35c-19 0 -31 -12 -37 -30z" />
    <glyph glyph-name="uni1EA5" unicode="&#x1ea5;" horiz-adv-x="536" 
d="M468 0h-105v52c-36 -41 -92 -64 -156 -64c-79 0 -168 53 -168 160c0 111 89 157 168 157c65 0 121 -21 156 -62v72c0 56 -46 90 -113 90c-54 0 -101 -20 -143 -61l-43 73c56 53 126 78 203 78c107 0 201 -45 201 -175v-320zM248 60c46 0 91 17 115 50v73
c-24 33 -69 50 -115 50c-59 0 -103 -34 -103 -87c0 -52 44 -86 103 -86zM410 556h-67l-77 96l-75 -96h-66l93 144h96zM613 770l-165 -144h-75l140 144h100z" />
    <glyph glyph-name="uni1EAD" unicode="&#x1ead;" horiz-adv-x="536" 
d="M468 0h-105v52c-36 -41 -92 -64 -156 -64c-79 0 -168 53 -168 160c0 111 89 157 168 157c65 0 121 -21 156 -62v72c0 56 -46 90 -113 90c-54 0 -101 -20 -143 -61l-43 73c56 53 126 78 203 78c107 0 201 -45 201 -175v-320zM248 60c46 0 91 17 115 50v73
c-24 33 -69 50 -115 50c-59 0 -103 -34 -103 -87c0 -52 44 -86 103 -86zM410 556h-67l-77 96l-75 -96h-66l93 144h96zM268 -191c-32 0 -59 26 -59 59c0 32 27 59 59 59s58 -27 58 -59c0 -33 -26 -59 -58 -59z" />
    <glyph glyph-name="uni1EA7" unicode="&#x1ea7;" horiz-adv-x="536" 
d="M468 0h-105v52c-36 -41 -92 -64 -156 -64c-79 0 -168 53 -168 160c0 111 89 157 168 157c65 0 121 -21 156 -62v72c0 56 -46 90 -113 90c-54 0 -101 -20 -143 -61l-43 73c56 53 126 78 203 78c107 0 201 -45 201 -175v-320zM248 60c46 0 91 17 115 50v73
c-24 33 -69 50 -115 50c-59 0 -103 -34 -103 -87c0 -52 44 -86 103 -86zM410 556h-67l-77 96l-75 -96h-66l93 144h96zM161 626h-75l-165 144h100z" />
    <glyph glyph-name="uni1EA9" unicode="&#x1ea9;" horiz-adv-x="536" 
d="M468 0h-105v52c-36 -41 -92 -64 -156 -64c-79 0 -168 53 -168 160c0 111 89 157 168 157c65 0 121 -21 156 -62v72c0 56 -46 90 -113 90c-54 0 -101 -20 -143 -61l-43 73c56 53 126 78 203 78c107 0 201 -45 201 -175v-320zM248 60c46 0 91 17 115 50v73
c-24 33 -69 50 -115 50c-59 0 -103 -34 -103 -87c0 -52 44 -86 103 -86zM410 556h-67l-77 96l-75 -96h-66l93 144h96zM328 722l-40 12c11 34 39 56 77 56c40 0 76 -21 76 -71c0 -21 -6 -35 -17 -52h-48c15 16 21 33 21 50c0 24 -14 35 -32 35c-19 0 -31 -12 -37 -30z" />
    <glyph glyph-name="uni1EAF" unicode="&#x1eaf;" horiz-adv-x="536" 
d="M468 0h-105v52c-36 -41 -92 -64 -156 -64c-79 0 -168 53 -168 160c0 111 89 157 168 157c65 0 121 -21 156 -62v72c0 56 -46 90 -113 90c-54 0 -101 -20 -143 -61l-43 73c56 53 126 78 203 78c107 0 201 -45 201 -175v-320zM248 60c46 0 91 17 115 50v73
c-24 33 -69 50 -115 50c-59 0 -103 -34 -103 -87c0 -52 44 -86 103 -86zM449 773l-165 -144h-75l140 144h100zM443 606c-40 -54 -103 -88 -175 -88c-71 0 -135 34 -176 88l48 40c29 -40 73 -66 128 -66c53 0 98 25 127 66z" />
    <glyph glyph-name="uni1EAB" unicode="&#x1eab;" horiz-adv-x="536" 
d="M468 0h-105v52c-36 -41 -92 -64 -156 -64c-79 0 -168 53 -168 160c0 111 89 157 168 157c65 0 121 -21 156 -62v72c0 56 -46 90 -113 90c-54 0 -101 -20 -143 -61l-43 73c56 53 126 78 203 78c107 0 201 -45 201 -175v-320zM248 60c46 0 91 17 115 50v73
c-24 33 -69 50 -115 50c-59 0 -103 -34 -103 -87c0 -52 44 -86 103 -86zM410 523h-67l-77 96l-75 -96h-66l93 144h96zM325 682c-70 0 -77 78 -119 78c-23 0 -42 -22 -42 -72h-57c0 82 36 134 103 134c69 0 77 -78 119 -78c23 0 41 22 41 72h58c0 -82 -36 -134 -103 -134z
" />
    <glyph glyph-name="uni1EB1" unicode="&#x1eb1;" horiz-adv-x="536" 
d="M468 0h-105v52c-36 -41 -92 -64 -156 -64c-79 0 -168 53 -168 160c0 111 89 157 168 157c65 0 121 -21 156 -62v72c0 56 -46 90 -113 90c-54 0 -101 -20 -143 -61l-43 73c56 53 126 78 203 78c107 0 201 -45 201 -175v-320zM248 60c46 0 91 17 115 50v73
c-24 33 -69 50 -115 50c-59 0 -103 -34 -103 -87c0 -52 44 -86 103 -86zM324 629h-75l-165 144h100zM443 609c-40 -54 -103 -88 -175 -88c-71 0 -135 34 -176 88l48 40c29 -40 73 -66 128 -66c53 0 98 25 127 66z" />
    <glyph glyph-name="uni1EB3" unicode="&#x1eb3;" horiz-adv-x="536" 
d="M468 0h-105v52c-36 -41 -92 -64 -156 -64c-79 0 -168 53 -168 160c0 111 89 157 168 157c65 0 121 -21 156 -62v72c0 56 -46 90 -113 90c-54 0 -101 -20 -143 -61l-43 73c56 53 126 78 203 78c107 0 201 -45 201 -175v-320zM248 60c46 0 91 17 115 50v73
c-24 33 -69 50 -115 50c-59 0 -103 -34 -103 -87c0 -52 44 -86 103 -86zM231 687l-40 12c11 34 39 56 77 56c40 0 76 -21 76 -71c0 -21 -6 -35 -17 -52h-48c15 16 21 33 21 50c0 24 -14 35 -32 35c-19 0 -31 -12 -37 -30zM443 609c-40 -54 -103 -88 -175 -88
c-71 0 -135 34 -176 88l48 40c29 -40 73 -66 128 -66c53 0 98 25 127 66z" />
    <glyph glyph-name="uni1EB5" unicode="&#x1eb5;" horiz-adv-x="536" 
d="M468 0h-105v52c-36 -41 -92 -64 -156 -64c-79 0 -168 53 -168 160c0 111 89 157 168 157c65 0 121 -21 156 -62v72c0 56 -46 90 -113 90c-54 0 -101 -20 -143 -61l-43 73c56 53 126 78 203 78c107 0 201 -45 201 -175v-320zM248 60c46 0 91 17 115 50v73
c-24 33 -69 50 -115 50c-59 0 -103 -34 -103 -87c0 -52 44 -86 103 -86zM443 609c-40 -54 -103 -88 -175 -88c-71 0 -135 34 -176 88l48 40c29 -40 73 -66 128 -66c53 0 98 25 127 66zM325 658c-70 0 -77 78 -119 78c-23 0 -42 -22 -42 -72h-57c0 82 36 134 103 134
c69 0 77 -78 119 -78c23 0 41 22 41 72h58c0 -82 -36 -134 -103 -134z" />
    <glyph glyph-name="uni1EB7" unicode="&#x1eb7;" horiz-adv-x="536" 
d="M468 0h-105v52c-36 -41 -92 -64 -156 -64c-79 0 -168 53 -168 160c0 111 89 157 168 157c65 0 121 -21 156 -62v72c0 56 -46 90 -113 90c-54 0 -101 -20 -143 -61l-43 73c56 53 126 78 203 78c107 0 201 -45 201 -175v-320zM248 60c46 0 91 17 115 50v73
c-24 33 -69 50 -115 50c-59 0 -103 -34 -103 -87c0 -52 44 -86 103 -86zM268 -191c-32 0 -59 26 -59 59c0 32 27 59 59 59s58 -27 58 -59c0 -33 -26 -59 -58 -59zM441 622c-40 -54 -103 -88 -175 -88c-71 0 -135 34 -176 88l48 40c29 -40 73 -66 128 -66c53 0 98 25 127 66z
" />
    <glyph glyph-name="ae" unicode="&#xe6;" horiz-adv-x="878" 
d="M842 207h-351c8 -73 58 -131 142 -131c44 0 96 19 127 53l48 -71c-48 -46 -119 -70 -180 -70c-81 0 -148 27 -190 98c-38 -57 -115 -98 -203 -98c-101 0 -196 52 -196 159c0 105 82 158 177 158c68 0 130 -20 170 -60v71c0 55 -51 89 -123 89c-59 0 -110 -19 -156 -61
l-43 73c57 53 129 78 208 78c88 0 150 -33 174 -93c35 51 84 93 177 93c135 0 219 -111 219 -263v-25zM490 281h250c-2 57 -38 128 -125 128c-82 0 -121 -69 -125 -128zM386 175v7c-28 32 -77 51 -128 51c-65 0 -113 -27 -113 -79s48 -78 113 -78c70 0 128 53 128 99z" />
    <glyph glyph-name="aeacute" unicode="&#x1fd;" horiz-adv-x="878" 
d="M598 700l-165 -144h-75l140 144h100zM842 207h-351c8 -73 58 -131 142 -131c44 0 96 19 127 53l48 -71c-48 -46 -119 -70 -180 -70c-81 0 -148 27 -190 98c-38 -57 -115 -98 -203 -98c-101 0 -196 52 -196 159c0 105 82 158 177 158c68 0 130 -20 170 -60v71
c0 55 -51 89 -123 89c-59 0 -110 -19 -156 -61l-43 73c57 53 129 78 208 78c88 0 150 -33 174 -93c35 51 84 93 177 93c135 0 219 -111 219 -263v-25zM490 281h250c-2 57 -38 128 -125 128c-82 0 -121 -69 -125 -128zM386 175v7c-28 32 -77 51 -128 51
c-65 0 -113 -27 -113 -79s48 -78 113 -78c70 0 128 53 128 99z" />
    <glyph glyph-name="aacute.alt1" horiz-adv-x="581" 
d="M463 700l-165 -144h-75l140 144h100zM513 0h-105v66c-37 -48 -93 -78 -155 -78c-124 0 -215 94 -215 253c0 156 90 254 215 254c60 0 116 -28 154 -79v67h106v-483zM283 81c50 0 101 28 125 64v191c-24 36 -75 65 -125 65c-83 0 -136 -66 -136 -160
c0 -93 53 -160 136 -160z" />
    <glyph glyph-name="abreve.alt1" horiz-adv-x="581" 
d="M513 0h-105v66c-37 -48 -93 -78 -155 -78c-124 0 -215 94 -215 253c0 156 90 254 215 254c60 0 116 -28 154 -79v67h106v-483zM283 81c50 0 101 28 125 64v191c-24 36 -75 65 -125 65c-83 0 -136 -66 -136 -160c0 -93 53 -160 136 -160zM474 622
c-40 -54 -103 -88 -175 -88c-71 0 -135 34 -176 88l48 40c29 -40 73 -66 128 -66c53 0 98 25 127 66z" />
    <glyph glyph-name="acircumflex.alt1" horiz-adv-x="581" 
d="M441 556h-67l-77 96l-75 -96h-66l93 144h96zM513 0h-105v66c-37 -48 -93 -78 -155 -78c-124 0 -215 94 -215 253c0 156 90 254 215 254c60 0 116 -28 154 -79v67h106v-483zM283 81c50 0 101 28 125 64v191c-24 36 -75 65 -125 65c-83 0 -136 -66 -136 -160
c0 -93 53 -160 136 -160z" />
    <glyph glyph-name="adieresis.alt1" horiz-adv-x="581" 
d="M462 608c0 -33 -27 -59 -59 -59s-59 26 -59 59c0 32 27 58 59 58s59 -26 59 -58zM252 608c0 -33 -26 -59 -58 -59c-33 0 -59 26 -59 59c0 32 26 58 59 58c32 0 58 -26 58 -58zM513 0h-105v66c-37 -48 -93 -78 -155 -78c-124 0 -215 94 -215 253c0 156 90 254 215 254
c60 0 116 -28 154 -79v67h106v-483zM283 81c50 0 101 28 125 64v191c-24 36 -75 65 -125 65c-83 0 -136 -66 -136 -160c0 -93 53 -160 136 -160z" />
    <glyph glyph-name="agrave.alt1" horiz-adv-x="581" 
d="M513 0h-105v66c-37 -48 -93 -78 -155 -78c-124 0 -215 94 -215 253c0 156 90 254 215 254c60 0 116 -28 154 -79v67h106v-483zM283 81c50 0 101 28 125 64v191c-24 36 -75 65 -125 65c-83 0 -136 -66 -136 -160c0 -93 53 -160 136 -160zM345 556h-75l-165 144h100z" />
    <glyph glyph-name="amacron.alt1" horiz-adv-x="581" 
d="M480 566h-363v62h363v-62zM513 0h-105v66c-37 -48 -93 -78 -155 -78c-124 0 -215 94 -215 253c0 156 90 254 215 254c60 0 116 -28 154 -79v67h106v-483zM283 81c50 0 101 28 125 64v191c-24 36 -75 65 -125 65c-83 0 -136 -66 -136 -160c0 -93 53 -160 136 -160z" />
    <glyph glyph-name="aogonek.alt1" horiz-adv-x="581" 
d="M513 0c-48 -24 -73 -55 -73 -93c0 -32 18 -46 40 -46c25 0 39 15 47 38l45 -27c-16 -32 -45 -58 -92 -58c-50 0 -95 26 -95 89c0 37 18 71 48 97h-25v66c-37 -48 -93 -78 -155 -78c-124 0 -215 94 -215 253c0 156 90 254 215 254c60 0 116 -28 154 -79v67h106v-483z
M283 81c50 0 101 28 125 64v191c-24 36 -75 65 -125 65c-83 0 -136 -66 -136 -160c0 -93 53 -160 136 -160z" />
    <glyph glyph-name="aring.alt1" horiz-adv-x="581" 
d="M299 536c-56 0 -102 46 -102 102s46 103 102 103s101 -47 101 -103s-45 -102 -101 -102zM299 586c29 0 51 24 51 52c0 29 -22 52 -51 52c-28 0 -52 -23 -52 -52c0 -28 24 -52 52 -52zM513 0h-105v66c-37 -48 -93 -78 -155 -78c-124 0 -215 94 -215 253
c0 156 90 254 215 254c60 0 116 -28 154 -79v67h106v-483zM283 81c50 0 101 28 125 64v191c-24 36 -75 65 -125 65c-83 0 -136 -66 -136 -160c0 -93 53 -160 136 -160z" />
    <glyph glyph-name="atilde.alt1" horiz-adv-x="581" 
d="M513 0h-105v66c-37 -48 -93 -78 -155 -78c-124 0 -215 94 -215 253c0 156 90 254 215 254c60 0 116 -28 154 -79v67h106v-483zM283 81c50 0 101 28 125 64v191c-24 36 -75 65 -125 65c-83 0 -136 -66 -136 -160c0 -93 53 -160 136 -160zM356 554c-70 0 -77 78 -119 78
c-23 0 -42 -22 -42 -72h-57c0 82 36 134 103 134c69 0 77 -78 119 -78c23 0 41 22 41 72h58c0 -82 -36 -134 -103 -134z" />
    <glyph glyph-name="uni1EA1.alt1" horiz-adv-x="581" 
d="M513 0h-105v66c-37 -48 -93 -78 -155 -78c-124 0 -215 94 -215 253c0 156 90 254 215 254c60 0 116 -28 154 -79v67h106v-483zM283 81c50 0 101 28 125 64v191c-24 36 -75 65 -125 65c-83 0 -136 -66 -136 -160c0 -93 53 -160 136 -160zM299 -191c-32 0 -59 26 -59 59
c0 32 27 59 59 59s58 -27 58 -59c0 -33 -26 -59 -58 -59z" />
    <glyph glyph-name="uni1EA3.alt1" horiz-adv-x="581" 
d="M513 0h-105v66c-37 -48 -93 -78 -155 -78c-124 0 -215 94 -215 253c0 156 90 254 215 254c60 0 116 -28 154 -79v67h106v-483zM283 81c50 0 101 28 125 64v191c-24 36 -75 65 -125 65c-83 0 -136 -66 -136 -160c0 -93 53 -160 136 -160zM262 582l-40 12
c11 34 39 56 77 56c40 0 76 -21 76 -71c0 -21 -6 -35 -17 -52h-48c15 16 21 33 21 50c0 24 -14 35 -32 35c-19 0 -31 -12 -37 -30z" />
    <glyph glyph-name="uni1EA5.alt1" horiz-adv-x="581" 
d="M441 556h-67l-77 96l-75 -96h-66l93 144h96zM641 770l-165 -144h-75l140 144h100zM513 0h-105v66c-37 -48 -93 -78 -155 -78c-124 0 -215 94 -215 253c0 156 90 254 215 254c60 0 116 -28 154 -79v67h106v-483zM283 81c50 0 101 28 125 64v191c-24 36 -75 65 -125 65
c-83 0 -136 -66 -136 -160c0 -93 53 -160 136 -160z" />
    <glyph glyph-name="uni1EAD.alt1" horiz-adv-x="581" 
d="M442 556h-67l-77 96l-75 -96h-66l93 144h96zM513 0h-105v66c-37 -48 -93 -78 -155 -78c-124 0 -215 94 -215 253c0 156 90 254 215 254c60 0 116 -28 154 -79v67h106v-483zM283 81c50 0 101 28 125 64v191c-24 36 -75 65 -125 65c-83 0 -136 -66 -136 -160
c0 -93 53 -160 136 -160zM299 -191c-32 0 -59 26 -59 59c0 32 27 59 59 59s58 -27 58 -59c0 -33 -26 -59 -58 -59z" />
    <glyph glyph-name="uni1EA7.alt1" horiz-adv-x="581" 
d="M441 556h-67l-77 96l-75 -96h-66l93 144h96zM513 0h-105v66c-37 -48 -93 -78 -155 -78c-124 0 -215 94 -215 253c0 156 90 254 215 254c60 0 116 -28 154 -79v67h106v-483zM283 81c50 0 101 28 125 64v191c-24 36 -75 65 -125 65c-83 0 -136 -66 -136 -160
c0 -93 53 -160 136 -160zM192 626h-75l-165 144h100z" />
    <glyph glyph-name="uni1EA9.alt1" horiz-adv-x="581" 
d="M441 556h-67l-77 96l-75 -96h-66l93 144h96zM513 0h-105v66c-37 -48 -93 -78 -155 -78c-124 0 -215 94 -215 253c0 156 90 254 215 254c60 0 116 -28 154 -79v67h106v-483zM283 81c50 0 101 28 125 64v191c-24 36 -75 65 -125 65c-83 0 -136 -66 -136 -160
c0 -93 53 -160 136 -160zM359 722l-40 12c11 34 39 56 77 56c40 0 76 -21 76 -71c0 -21 -6 -35 -17 -52h-48c15 16 21 33 21 50c0 24 -14 35 -32 35c-19 0 -31 -12 -37 -30z" />
    <glyph glyph-name="uni1EAF.alt1" horiz-adv-x="581" 
d="M477 773l-165 -144h-75l140 144h100zM513 0h-105v66c-37 -48 -93 -78 -155 -78c-124 0 -215 94 -215 253c0 156 90 254 215 254c60 0 116 -28 154 -79v67h106v-483zM283 81c50 0 101 28 125 64v191c-24 36 -75 65 -125 65c-83 0 -136 -66 -136 -160
c0 -93 53 -160 136 -160zM474 606c-40 -54 -103 -88 -175 -88c-71 0 -135 34 -176 88l48 40c29 -40 73 -66 128 -66c53 0 98 25 127 66z" />
    <glyph glyph-name="uni1EAB.alt1" horiz-adv-x="581" 
d="M441 523h-67l-77 96l-75 -96h-66l93 144h96zM513 0h-105v66c-37 -48 -93 -78 -155 -78c-124 0 -215 94 -215 253c0 156 90 254 215 254c60 0 116 -28 154 -79v67h106v-483zM283 81c50 0 101 28 125 64v191c-24 36 -75 65 -125 65c-83 0 -136 -66 -136 -160
c0 -93 53 -160 136 -160zM353 682c-70 0 -77 78 -119 78c-23 0 -42 -22 -42 -72h-57c0 82 36 134 103 134c69 0 77 -78 119 -78c23 0 41 22 41 72h58c0 -82 -36 -134 -103 -134z" />
    <glyph glyph-name="uni1EB1.alt1" horiz-adv-x="581" 
d="M513 0h-105v66c-37 -48 -93 -78 -155 -78c-124 0 -215 94 -215 253c0 156 90 254 215 254c60 0 116 -28 154 -79v67h106v-483zM283 81c50 0 101 28 125 64v191c-24 36 -75 65 -125 65c-83 0 -136 -66 -136 -160c0 -93 53 -160 136 -160zM352 629h-75l-165 144h100z
M474 609c-40 -54 -103 -88 -175 -88c-71 0 -135 34 -176 88l48 40c29 -40 73 -66 128 -66c53 0 98 25 127 66z" />
    <glyph glyph-name="uni1EB3.alt1" horiz-adv-x="581" 
d="M513 0h-105v66c-37 -48 -93 -78 -155 -78c-124 0 -215 94 -215 253c0 156 90 254 215 254c60 0 116 -28 154 -79v67h106v-483zM283 81c50 0 101 28 125 64v191c-24 36 -75 65 -125 65c-83 0 -136 -66 -136 -160c0 -93 53 -160 136 -160zM262 687l-40 12
c11 34 39 56 77 56c40 0 76 -21 76 -71c0 -21 -6 -35 -17 -52h-48c15 16 21 33 21 50c0 24 -14 35 -32 35c-19 0 -31 -12 -37 -30zM474 609c-40 -54 -103 -88 -175 -88c-71 0 -135 34 -176 88l48 40c29 -40 73 -66 128 -66c53 0 98 25 127 66z" />
    <glyph glyph-name="uni1EB5.alt1" horiz-adv-x="581" 
d="M474 609c-40 -54 -103 -88 -175 -88c-71 0 -135 34 -176 88l48 40c29 -40 73 -66 128 -66c53 0 98 25 127 66zM513 0h-105v66c-37 -48 -93 -78 -155 -78c-124 0 -215 94 -215 253c0 156 90 254 215 254c60 0 116 -28 154 -79v67h106v-483zM283 81c50 0 101 28 125 64v191
c-24 36 -75 65 -125 65c-83 0 -136 -66 -136 -160c0 -93 53 -160 136 -160zM356 660c-70 0 -77 78 -119 78c-23 0 -42 -22 -42 -72h-57c0 82 36 134 103 134c69 0 77 -78 119 -78c23 0 41 22 41 72h58c0 -82 -36 -134 -103 -134z" />
    <glyph glyph-name="uni1EB7.alt1" horiz-adv-x="581" 
d="M513 0h-105v66c-37 -48 -93 -78 -155 -78c-124 0 -215 94 -215 253c0 156 90 254 215 254c60 0 116 -28 154 -79v67h106v-483zM283 81c50 0 101 28 125 64v191c-24 36 -75 65 -125 65c-83 0 -136 -66 -136 -160c0 -93 53 -160 136 -160zM299 -191c-32 0 -59 26 -59 59
c0 32 27 59 59 59s58 -27 58 -59c0 -33 -26 -59 -58 -59zM474 622c-40 -54 -103 -88 -175 -88c-71 0 -135 34 -176 88l48 40c29 -40 73 -66 128 -66c53 0 98 25 127 66z" />
    <glyph glyph-name="ae.alt1" horiz-adv-x="922" 
d="M283 81c50 0 101 28 125 64v191c-24 36 -75 65 -125 65c-83 0 -136 -66 -136 -160c0 -93 53 -160 136 -160zM513 82v-82h-105v66c-37 -48 -93 -78 -155 -78c-124 0 -215 94 -215 253c0 156 90 254 215 254c60 0 116 -28 154 -79v67h106v-83c33 56 87 95 164 95
c128 0 209 -111 209 -263v-25h-373c8 -73 62 -131 153 -131c48 0 103 19 138 53l47 -71c-38 -40 -98 -70 -166 -70c-89 0 -142 43 -172 94zM785 281c-3 57 -42 128 -137 128c-89 0 -131 -69 -135 -128h272z" />
    <glyph glyph-name="aeacute.alt1" horiz-adv-x="922" 
d="M283 81c50 0 101 28 125 64v191c-24 36 -75 65 -125 65c-83 0 -136 -66 -136 -160c0 -93 53 -160 136 -160zM513 82v-82h-105v66c-37 -48 -93 -78 -155 -78c-124 0 -215 94 -215 253c0 156 90 254 215 254c60 0 116 -28 154 -79v67h106v-83c33 56 87 95 164 95
c128 0 209 -111 209 -263v-25h-373c8 -73 62 -131 153 -131c48 0 103 19 138 53l47 -71c-38 -40 -98 -70 -166 -70c-89 0 -142 43 -172 94zM785 281c-3 57 -42 128 -137 128c-89 0 -131 -69 -135 -128h272zM641 700l-165 -144h-75l140 144h100z" />
    <glyph glyph-name="uni1E03" unicode="&#x1e03;" horiz-adv-x="581" 
d="M173 145c23 -36 75 -64 124 -64c84 0 137 66 137 160s-53 161 -137 161c-49 0 -101 -30 -124 -66v-191zM173 0h-105v667h105v-251c38 51 94 79 155 79c124 0 214 -98 214 -254c0 -159 -91 -253 -214 -253c-63 0 -118 30 -155 78v-66zM297 715c-32 0 -59 26 -59 59
c0 32 27 59 59 59s58 -27 58 -59c0 -33 -26 -59 -58 -59z" />
    <glyph glyph-name="cacute" unicode="&#x107;" horiz-adv-x="497" 
d="M466 700l-165 -144h-75l140 144h100zM288 -12c-147 0 -250 107 -250 254c0 146 103 253 250 253c94 0 151 -40 185 -86l-69 -64c-27 38 -64 57 -111 57c-88 0 -146 -66 -146 -160s58 -161 146 -161c47 0 84 20 111 57l69 -64c-34 -46 -91 -86 -185 -86z" />
    <glyph glyph-name="ccedilla" unicode="&#xe7;" horiz-adv-x="497" 
d="M290 -192c-46 0 -86 15 -106 31l22 46c25 -20 54 -29 81 -29c29 0 56 12 56 36c0 19 -11 30 -33 30c-13 0 -26 -6 -34 -15l-41 23l22 60c-130 13 -219 115 -219 252c0 146 103 253 250 253c94 0 151 -40 185 -86l-69 -64c-27 38 -64 57 -111 57c-88 0 -146 -66 -146 -160
s58 -161 146 -161c47 0 84 20 111 57l69 -64c-31 -42 -82 -79 -162 -85l-16 -40c10 7 23 11 36 11c38 0 67 -28 67 -69c0 -51 -49 -83 -108 -83z" />
    <glyph glyph-name="ccircumflex" unicode="&#x109;" horiz-adv-x="497" 
d="M431 556h-67l-77 96l-75 -96h-66l93 144h96zM288 -12c-147 0 -250 107 -250 254c0 146 103 253 250 253c94 0 151 -40 185 -86l-69 -64c-27 38 -64 57 -111 57c-88 0 -146 -66 -146 -160s58 -161 146 -161c47 0 84 20 111 57l69 -64c-34 -46 -91 -86 -185 -86z" />
    <glyph glyph-name="cdotaccent" unicode="&#x10b;" horiz-adv-x="497" 
d="M288 -12c-147 0 -250 107 -250 254c0 146 103 253 250 253c94 0 151 -40 185 -86l-69 -64c-27 38 -64 57 -111 57c-88 0 -146 -66 -146 -160s58 -161 146 -161c47 0 84 20 111 57l69 -64c-34 -46 -91 -86 -185 -86zM289 548c-32 0 -59 26 -59 59c0 32 27 59 59 59
s58 -27 58 -59c0 -33 -26 -59 -58 -59z" />
    <glyph glyph-name="ccaron" unicode="&#x10d;" horiz-adv-x="497" 
d="M338 556h-96l-96 144h66l78 -97l74 97h67zM288 -12c-147 0 -250 107 -250 254c0 146 103 253 250 253c94 0 151 -40 185 -86l-69 -64c-27 38 -64 57 -111 57c-88 0 -146 -66 -146 -160s58 -161 146 -161c47 0 84 20 111 57l69 -64c-34 -46 -91 -86 -185 -86z" />
    <glyph glyph-name="dcaron" unicode="&#x10f;" horiz-adv-x="670" 
d="M675 604c0 -58 -33 -111 -78 -143l-39 31c28 17 56 53 61 82c-2 -1 -9 -2 -14 -2c-27 0 -48 21 -48 51c0 31 24 56 55 56c33 0 63 -27 63 -75zM513 0h-105v66c-37 -48 -93 -78 -155 -78c-124 0 -215 94 -215 253c0 156 90 254 215 254c60 0 116 -28 155 -79v251h105v-667
zM283 81c50 0 101 28 125 64v192c-24 36 -75 65 -125 65c-83 0 -136 -67 -136 -161c0 -93 53 -160 136 -160z" />
    <glyph glyph-name="dcroat" unicode="&#x111;" horiz-adv-x="585" 
d="M513 0h-105v66c-37 -48 -93 -78 -155 -78c-124 0 -215 94 -215 253c0 156 90 254 215 254c60 0 116 -28 155 -79v115h-150v62h150v74h105v-74h63v-62h-63v-531zM283 81c50 0 101 28 125 64v192c-24 36 -75 65 -125 65c-83 0 -136 -67 -136 -161c0 -93 53 -160 136 -160z
" />
    <glyph glyph-name="uni1E0B" unicode="&#x1e0b;" horiz-adv-x="581" 
d="M513 0h-105v66c-37 -48 -93 -78 -155 -78c-124 0 -215 94 -215 253c0 156 90 254 215 254c60 0 116 -28 155 -79v251h105v-667zM283 81c50 0 101 28 125 64v192c-24 36 -75 65 -125 65c-83 0 -136 -67 -136 -161c0 -93 53 -160 136 -160zM285 715c-32 0 -59 26 -59 59
c0 32 27 59 59 59s58 -27 58 -59c0 -33 -26 -59 -58 -59z" />
    <glyph glyph-name="eacute" unicode="&#xe9;" horiz-adv-x="557" 
d="M463 700l-165 -144h-75l140 144h100zM291 -12c-145 0 -253 101 -253 254c0 140 102 253 245 253c145 0 238 -111 238 -263v-25h-373c8 -73 63 -133 154 -133c47 0 103 19 137 53l48 -69c-48 -46 -119 -70 -196 -70zM419 281c-2 57 -41 128 -136 128
c-90 0 -131 -69 -136 -128h272z" />
    <glyph glyph-name="ebreve" unicode="&#x115;" horiz-adv-x="557" 
d="M291 -12c-145 0 -253 101 -253 254c0 140 102 253 245 253c145 0 238 -111 238 -263v-25h-373c8 -73 63 -133 154 -133c47 0 103 19 137 53l48 -69c-48 -46 -119 -70 -196 -70zM419 281c-2 57 -41 128 -136 128c-90 0 -131 -69 -136 -128h272zM460 622
c-40 -54 -103 -88 -175 -88c-71 0 -135 34 -176 88l48 40c29 -40 73 -66 128 -66c53 0 98 25 127 66z" />
    <glyph glyph-name="ecircumflex" unicode="&#xea;" horiz-adv-x="557" 
d="M427 556h-67l-77 96l-75 -96h-66l93 144h96zM291 -12c-145 0 -253 101 -253 254c0 140 102 253 245 253c145 0 238 -111 238 -263v-25h-373c8 -73 63 -133 154 -133c47 0 103 19 137 53l48 -69c-48 -46 -119 -70 -196 -70zM419 281c-2 57 -41 128 -136 128
c-90 0 -131 -69 -136 -128h272z" />
    <glyph glyph-name="edieresis" unicode="&#xeb;" horiz-adv-x="557" 
d="M448 608c0 -33 -27 -59 -59 -59s-59 26 -59 59c0 32 27 58 59 58s59 -26 59 -58zM238 608c0 -33 -26 -59 -58 -59c-33 0 -59 26 -59 59c0 32 26 58 59 58c32 0 58 -26 58 -58zM291 -12c-145 0 -253 101 -253 254c0 140 102 253 245 253c145 0 238 -111 238 -263v-25h-373
c8 -73 63 -133 154 -133c47 0 103 19 137 53l48 -69c-48 -46 -119 -70 -196 -70zM419 281c-2 57 -41 128 -136 128c-90 0 -131 -69 -136 -128h272z" />
    <glyph glyph-name="edotaccent" unicode="&#x117;" horiz-adv-x="557" 
d="M291 -12c-145 0 -253 101 -253 254c0 140 102 253 245 253c145 0 238 -111 238 -263v-25h-373c8 -73 63 -133 154 -133c47 0 103 19 137 53l48 -69c-48 -46 -119 -70 -196 -70zM419 281c-2 57 -41 128 -136 128c-90 0 -131 -69 -136 -128h272zM285 548
c-32 0 -59 26 -59 59c0 32 27 59 59 59s58 -27 58 -59c0 -33 -26 -59 -58 -59z" />
    <glyph glyph-name="egrave" unicode="&#xe8;" horiz-adv-x="557" 
d="M291 -12c-145 0 -253 101 -253 254c0 140 102 253 245 253c145 0 238 -111 238 -263v-25h-373c8 -73 63 -133 154 -133c47 0 103 19 137 53l48 -69c-48 -46 -119 -70 -196 -70zM419 281c-2 57 -41 128 -136 128c-90 0 -131 -69 -136 -128h272zM345 556h-75l-165 144h100z
" />
    <glyph glyph-name="emacron" unicode="&#x113;" horiz-adv-x="557" 
d="M291 -12c-145 0 -253 101 -253 254c0 140 102 253 245 253c145 0 238 -111 238 -263v-25h-373c8 -73 63 -133 154 -133c47 0 103 19 137 53l48 -69c-48 -46 -119 -70 -196 -70zM419 281c-2 57 -41 128 -136 128c-90 0 -131 -69 -136 -128h272zM466 566h-363v62h363v-62z
" />
    <glyph glyph-name="eogonek" unicode="&#x119;" horiz-adv-x="557" 
d="M395 -101l45 -27c-16 -32 -45 -58 -92 -58c-50 0 -95 26 -95 89c0 32 13 61 36 85c-144 1 -251 101 -251 254c0 140 102 253 245 253c145 0 238 -111 238 -263v-25h-373c8 -73 63 -133 154 -133c47 0 103 19 137 53l48 -69c-29 -28 -65 -47 -106 -58
c-48 -24 -73 -55 -73 -93c0 -32 18 -46 40 -46c25 0 39 15 47 38zM419 281c-2 57 -41 128 -136 128c-90 0 -131 -69 -136 -128h272z" />
    <glyph glyph-name="ecaron" unicode="&#x11b;" horiz-adv-x="557" 
d="M333 556h-96l-96 144h66l78 -97l74 97h67zM291 -12c-145 0 -253 101 -253 254c0 140 102 253 245 253c145 0 238 -111 238 -263v-25h-373c8 -73 63 -133 154 -133c47 0 103 19 137 53l48 -69c-48 -46 -119 -70 -196 -70zM419 281c-2 57 -41 128 -136 128
c-90 0 -131 -69 -136 -128h272z" />
    <glyph glyph-name="uni1EB9" unicode="&#x1eb9;" horiz-adv-x="557" 
d="M291 -12c-145 0 -253 101 -253 254c0 140 102 253 245 253c145 0 238 -111 238 -263v-25h-373c8 -73 63 -133 154 -133c47 0 103 19 137 53l48 -69c-48 -46 -119 -70 -196 -70zM419 281c-2 57 -41 128 -136 128c-90 0 -131 -69 -136 -128h272zM285 -191
c-32 0 -59 26 -59 59c0 32 27 59 59 59s58 -27 58 -59c0 -33 -26 -59 -58 -59z" />
    <glyph glyph-name="uni1EBB" unicode="&#x1ebb;" horiz-adv-x="557" 
d="M291 -12c-145 0 -253 101 -253 254c0 140 102 253 245 253c145 0 238 -111 238 -263v-25h-373c8 -73 63 -133 154 -133c47 0 103 19 137 53l48 -69c-48 -46 -119 -70 -196 -70zM419 281c-2 57 -41 128 -136 128c-90 0 -131 -69 -136 -128h272zM247 582l-40 12
c11 34 39 56 77 56c40 0 76 -21 76 -71c0 -21 -6 -35 -17 -52h-48c15 16 21 33 21 50c0 24 -14 35 -32 35c-19 0 -31 -12 -37 -30z" />
    <glyph glyph-name="uni1EBD" unicode="&#x1ebd;" horiz-adv-x="557" 
d="M291 -12c-145 0 -253 101 -253 254c0 140 102 253 245 253c145 0 238 -111 238 -263v-25h-373c8 -73 63 -133 154 -133c47 0 103 19 137 53l48 -69c-48 -46 -119 -70 -196 -70zM419 281c-2 57 -41 128 -136 128c-90 0 -131 -69 -136 -128h272zM341 554
c-70 0 -77 78 -119 78c-23 0 -42 -22 -42 -72h-57c0 82 36 134 103 134c69 0 77 -78 119 -78c23 0 41 22 41 72h58c0 -82 -36 -134 -103 -134z" />
    <glyph glyph-name="uni1EBF" unicode="&#x1ebf;" horiz-adv-x="557" 
d="M426 556h-67l-77 96l-75 -96h-66l93 144h96zM626 770l-165 -144h-75l140 144h100zM291 -12c-145 0 -253 101 -253 254c0 140 102 253 245 253c145 0 238 -111 238 -263v-25h-373c8 -73 63 -133 154 -133c47 0 103 19 137 53l48 -69c-48 -46 -119 -70 -196 -70zM419 281
c-2 57 -41 128 -136 128c-90 0 -131 -69 -136 -128h272z" />
    <glyph glyph-name="uni1EC1" unicode="&#x1ec1;" horiz-adv-x="557" 
d="M426 556h-67l-77 96l-75 -96h-66l93 144h96zM291 -12c-145 0 -253 101 -253 254c0 140 102 253 245 253c145 0 238 -111 238 -263v-25h-373c8 -73 63 -133 154 -133c47 0 103 19 137 53l48 -69c-48 -46 -119 -70 -196 -70zM419 281c-2 57 -41 128 -136 128
c-90 0 -131 -69 -136 -128h272zM177 626h-75l-165 144h100z" />
    <glyph glyph-name="uni1EC3" unicode="&#x1ec3;" horiz-adv-x="557" 
d="M426 556h-67l-77 96l-75 -96h-66l93 144h96zM291 -12c-145 0 -253 101 -253 254c0 140 102 253 245 253c145 0 238 -111 238 -263v-25h-373c8 -73 63 -133 154 -133c47 0 103 19 137 53l48 -69c-48 -46 -119 -70 -196 -70zM419 281c-2 57 -41 128 -136 128
c-90 0 -131 -69 -136 -128h272zM344 722l-40 12c11 34 39 56 77 56c40 0 76 -21 76 -71c0 -21 -6 -35 -17 -52h-48c15 16 21 33 21 50c0 24 -14 35 -32 35c-19 0 -31 -12 -37 -30z" />
    <glyph glyph-name="uni1EC5" unicode="&#x1ec5;" horiz-adv-x="557" 
d="M426 523h-67l-77 96l-75 -96h-66l93 144h96zM291 -12c-145 0 -253 101 -253 254c0 140 102 253 245 253c145 0 238 -111 238 -263v-25h-373c8 -73 63 -133 154 -133c47 0 103 19 137 53l48 -69c-48 -46 -119 -70 -196 -70zM419 281c-2 57 -41 128 -136 128
c-90 0 -131 -69 -136 -128h272zM341 682c-70 0 -77 78 -119 78c-23 0 -42 -22 -42 -72h-57c0 82 36 134 103 134c69 0 77 -78 119 -78c23 0 41 22 41 72h58c0 -82 -36 -134 -103 -134z" />
    <glyph glyph-name="uni1EC7" unicode="&#x1ec7;" horiz-adv-x="557" 
d="M427 556h-67l-77 96l-75 -96h-66l93 144h96zM291 -12c-145 0 -253 101 -253 254c0 140 102 253 245 253c145 0 238 -111 238 -263v-25h-373c8 -73 63 -133 154 -133c47 0 103 19 137 53l48 -69c-48 -46 -119 -70 -196 -70zM419 281c-2 57 -41 128 -136 128
c-90 0 -131 -69 -136 -128h272zM285 -191c-32 0 -59 26 -59 59c0 32 27 59 59 59s58 -27 58 -59c0 -33 -26 -59 -58 -59z" />
    <glyph glyph-name="fl.alt1" horiz-adv-x="594" 
d="M198 0h-105v391h-80v92h80v27c0 108 64 167 153 167c33 0 63 -7 84 -19l-23 -78c-10 7 -24 11 -42 11c-41 0 -67 -27 -67 -81v-27h98v-92h-98v-391zM500 -12c-82 0 -124 44 -124 124v555h105v-529c0 -33 16 -57 46 -57c20 0 38 8 46 17l25 -79c-19 -18 -50 -31 -98 -31z
" />
    <glyph glyph-name="f_f_l.alt1" horiz-adv-x="902" 
d="M506 0h-105v391h-80v92h80v27c0 108 64 167 153 167c33 0 63 -7 84 -19l-23 -78c-10 7 -24 11 -42 11c-41 0 -67 -27 -67 -81v-27h98v-92h-98v-391zM809 -12c-82 0 -124 44 -124 124v555h105v-529c0 -33 16 -57 46 -57c20 0 38 8 46 17l25 -79c-19 -18 -50 -31 -98 -31z
M198 0h-105v391h-80v92h80v27c0 105 61 167 153 167c43 0 86 -11 116 -42l-41 -65c-14 13 -32 21 -56 21c-41 0 -67 -27 -67 -81v-27h98v-92h-98v-391z" />
    <glyph glyph-name="uni1E1F" unicode="&#x1e1f;" horiz-adv-x="308" 
d="M247 715c-32 0 -59 26 -59 59c0 32 27 59 59 59s58 -27 58 -59c0 -33 -26 -59 -58 -59zM198 0h-105v391h-80v92h80v27c0 105 61 167 153 167c43 0 86 -11 116 -42l-41 -65c-14 13 -32 21 -56 21c-41 0 -67 -27 -67 -81v-27h98v-92h-98v-391z" />
    <glyph glyph-name="gcircumflex" unicode="&#x11d;" horiz-adv-x="580" 
d="M437 556h-67l-77 96l-75 -96h-66l93 144h96zM264 -196c-82 0 -143 18 -202 72l49 76c39 -45 89 -62 153 -62c69 0 143 32 143 131v58c-37 -48 -92 -80 -155 -80c-123 0 -214 89 -214 248c0 156 90 248 214 248c61 0 116 -28 155 -79v67h105v-458
c0 -174 -129 -221 -248 -221zM283 92c49 0 101 29 124 65v180c-23 36 -75 65 -124 65c-83 0 -136 -62 -136 -155s53 -155 136 -155z" />
    <glyph glyph-name="gbreve" unicode="&#x11f;" horiz-adv-x="580" 
d="M264 -196c-82 0 -143 18 -202 72l49 76c39 -45 89 -62 153 -62c69 0 143 32 143 131v58c-37 -48 -92 -80 -155 -80c-123 0 -214 89 -214 248c0 156 90 248 214 248c61 0 116 -28 155 -79v67h105v-458c0 -174 -129 -221 -248 -221zM283 92c49 0 101 29 124 65v180
c-23 36 -75 65 -124 65c-83 0 -136 -62 -136 -155s53 -155 136 -155zM469 622c-40 -54 -103 -88 -175 -88c-71 0 -135 34 -176 88l48 40c29 -40 73 -66 128 -66c53 0 98 25 127 66z" />
    <glyph glyph-name="gdotaccent" unicode="&#x121;" horiz-adv-x="580" 
d="M264 -196c-82 0 -143 18 -202 72l49 76c39 -45 89 -62 153 -62c69 0 143 32 143 131v58c-37 -48 -92 -80 -155 -80c-123 0 -214 89 -214 248c0 156 90 248 214 248c61 0 116 -28 155 -79v67h105v-458c0 -174 -129 -221 -248 -221zM283 92c49 0 101 29 124 65v180
c-23 36 -75 65 -124 65c-83 0 -136 -62 -136 -155s53 -155 136 -155zM294 548c-32 0 -59 26 -59 59c0 32 27 59 59 59s58 -27 58 -59c0 -33 -26 -59 -58 -59z" />
    <glyph glyph-name="gcommaaccent" unicode="&#x123;" horiz-adv-x="580" 
d="M236 611c0 62 30 118 75 149l39 -31c-26 -16 -57 -50 -60 -79c1 0 3 1 6 1c26 0 54 -23 54 -53s-25 -56 -57 -56c-25 0 -57 18 -57 69zM264 -196c-82 0 -143 18 -202 72l49 76c39 -45 89 -62 153 -62c69 0 143 32 143 131v58c-37 -48 -92 -80 -155 -80
c-123 0 -214 89 -214 248c0 156 90 248 214 248c61 0 116 -28 155 -79v67h105v-458c0 -174 -129 -221 -248 -221zM283 92c49 0 101 29 124 65v180c-23 36 -75 65 -124 65c-83 0 -136 -62 -136 -155s53 -155 136 -155z" />
    <glyph glyph-name="hbar" unicode="&#x127;" horiz-adv-x="571" 
d="M327 531h-151v-114c32 38 95 78 171 78c104 0 156 -54 156 -153v-342h-105v304c0 75 -39 98 -98 98c-53 0 -99 -32 -124 -65v-337h-105v531h-62v62h62v74h105v-74h151v-62z" />
    <glyph glyph-name="hcircumflex" unicode="&#x125;" horiz-adv-x="568" 
d="M427 723h-67l-77 96l-75 -96h-66l93 144h96zM500 0h-105v304c0 75 -39 98 -98 98c-53 0 -99 -32 -124 -65v-337h-105v667h105v-250c32 38 95 78 171 78c104 0 156 -54 156 -153v-342z" />
    <glyph glyph-name="uni1E23" unicode="&#x1e23;" horiz-adv-x="568" 
d="M500 0h-105v304c0 75 -39 98 -98 98c-53 0 -99 -32 -124 -65v-337h-105v667h105v-250c32 38 95 78 171 78c104 0 156 -54 156 -153v-342zM284 715c-32 0 -59 26 -59 59c0 32 27 59 59 59s58 -27 58 -59c0 -33 -26 -59 -58 -59z" />
    <glyph glyph-name="dotlessi" unicode="&#x131;" horiz-adv-x="241" 
d="M173 0h-105v483h105v-483z" />
    <glyph glyph-name="iacute" unicode="&#xed;" horiz-adv-x="241" 
d="M300 700l-165 -144h-75l140 144h100zM173 0h-105v483h105v-483z" />
    <glyph glyph-name="ibreve" unicode="&#x12d;" horiz-adv-x="241" 
d="M173 0h-105v483h105v-483zM296 622c-40 -54 -103 -88 -175 -88c-71 0 -135 34 -176 88l48 40c29 -40 73 -66 128 -66c53 0 98 25 127 66z" />
    <glyph glyph-name="icircumflex" unicode="&#xee;" horiz-adv-x="241" 
d="M263 556h-67l-77 96l-75 -96h-66l93 144h96zM173 0h-105v483h105v-483z" />
    <glyph glyph-name="idieresis" unicode="&#xef;" horiz-adv-x="241" 
d="M284 608c0 -33 -27 -59 -59 -59s-59 26 -59 59c0 32 27 58 59 58s59 -26 59 -58zM74 608c0 -33 -26 -59 -58 -59c-33 0 -59 26 -59 59c0 32 26 58 59 58c32 0 58 -26 58 -58zM173 0h-105v483h105v-483z" />
    <glyph glyph-name="igrave" unicode="&#xec;" horiz-adv-x="241" 
d="M173 0h-105v483h105v-483zM181 556h-75l-165 144h100z" />
    <glyph glyph-name="imacron" unicode="&#x12b;" horiz-adv-x="241" 
d="M173 0h-105v483h105v-483zM302 566h-363v62h363v-62z" />
    <glyph glyph-name="iogonek" unicode="&#x12f;" horiz-adv-x="241" 
d="M187 -101l45 -27c-16 -32 -45 -58 -92 -58c-50 0 -95 26 -95 89c0 37 18 71 48 97h-25v483h105v-483c-48 -24 -73 -55 -73 -93c0 -32 18 -46 40 -46c25 0 39 15 47 38zM120 542c-35 0 -65 29 -65 65s30 65 65 65c36 0 65 -29 65 -65s-29 -65 -65 -65z" />
    <glyph glyph-name="itilde" unicode="&#x129;" horiz-adv-x="241" 
d="M173 0h-105v483h105v-483zM178 554c-70 0 -77 78 -119 78c-23 0 -42 -22 -42 -72h-57c0 82 36 134 103 134c69 0 77 -78 119 -78c23 0 41 22 41 72h58c0 -82 -36 -134 -103 -134z" />
    <glyph glyph-name="uni1EC9" unicode="&#x1ec9;" horiz-adv-x="241" 
d="M173 0h-105v483h105v-483zM84 582l-40 12c11 34 39 56 77 56c40 0 76 -21 76 -71c0 -21 -6 -35 -17 -52h-48c15 16 21 33 21 50c0 24 -14 35 -32 35c-19 0 -31 -12 -37 -30z" />
    <glyph glyph-name="uni1ECB" unicode="&#x1ecb;" horiz-adv-x="241" 
d="M120 542c-35 0 -65 29 -65 65s30 65 65 65c36 0 65 -29 65 -65s-29 -65 -65 -65zM173 0h-105v483h105v-483zM121 -191c-32 0 -59 26 -59 59c0 32 27 59 59 59s58 -27 58 -59c0 -33 -26 -59 -58 -59z" />
    <glyph glyph-name="ij" unicode="&#x133;" horiz-adv-x="482" 
d="M120 542c-35 0 -65 29 -65 65s30 65 65 65c36 0 65 -29 65 -65s-29 -65 -65 -65zM173 0h-105v483h105v-483zM361 542c-35 0 -65 29 -65 65s30 65 65 65c36 0 65 -29 65 -65s-29 -65 -65 -65zM254 -196c-56 0 -81 11 -114 35l31 78c18 -16 37 -27 67 -27c41 0 71 25 71 82
v511h105v-511c0 -103 -54 -168 -160 -168z" />
    <glyph glyph-name="uni0237" unicode="&#x237;" horiz-adv-x="241" 
d="M13 -196c-56 0 -81 11 -114 35l31 78c18 -16 37 -27 67 -27c41 0 71 25 71 82v511h105v-511c0 -103 -54 -168 -160 -168z" />
    <glyph glyph-name="jcircumflex" unicode="&#x135;" horiz-adv-x="241" 
d="M265 556h-67l-77 96l-75 -96h-66l93 144h96zM13 -196c-56 0 -81 11 -114 35l31 78c18 -16 37 -27 67 -27c41 0 71 25 71 82v511h105v-511c0 -103 -54 -168 -160 -168z" />
    <glyph glyph-name="kcommaaccent" unicode="&#x137;" horiz-adv-x="526" 
d="M328 -138c0 -58 -33 -111 -78 -143l-39 31c28 17 56 53 61 82c-2 -1 -9 -2 -14 -2c-27 0 -48 21 -48 51c0 31 24 56 55 56c33 0 63 -27 63 -75zM520 0h-132l-148 199l-67 -69v-130h-105v667h105v-417l213 233h130l-201 -219z" />
    <glyph glyph-name="kgreenlandic" unicode="&#x138;" horiz-adv-x="526" 
d="M520 0h-132l-148 199l-67 -69v-130h-105v483h105v-233l213 233h130l-201 -219z" />
    <glyph glyph-name="lacute" unicode="&#x13a;" horiz-adv-x="241" 
d="M300 867l-165 -144h-75l140 144h100zM173 0h-105v667h105v-667z" />
    <glyph glyph-name="lcommaaccent" unicode="&#x13c;" horiz-adv-x="241" 
d="M186 -138c0 -58 -33 -111 -78 -143l-39 31c28 17 56 53 61 82c-2 -1 -9 -2 -14 -2c-27 0 -48 21 -48 51c0 31 24 56 55 56c33 0 63 -27 63 -75zM173 0h-105v667h105v-667z" />
    <glyph glyph-name="lcaron" unicode="&#x13e;" horiz-adv-x="327" 
d="M346 605c0 -58 -33 -111 -78 -143l-39 31c28 17 56 53 61 82c-2 -1 -9 -2 -14 -2c-27 0 -48 21 -48 51c0 31 24 56 55 56c33 0 63 -27 63 -75zM173 0h-105v667h105v-667z" />
    <glyph glyph-name="ldot" unicode="&#x140;" horiz-adv-x="351" 
d="M173 0h-105v667h105v-667zM365 244c0 -37 -32 -69 -70 -69s-70 32 -70 69c0 38 32 70 70 70s70 -32 70 -70z" />
    <glyph glyph-name="lslash" unicode="&#x142;" horiz-adv-x="299" 
d="M9 214v79l88 50v324h105v-263l87 50v-79l-87 -50v-325h-105v264z" />
    <glyph glyph-name="lacute.alt1" horiz-adv-x="285" 
d="M300 867l-165 -144h-75l140 144h100zM192 -12c-82 0 -124 44 -124 124v555h105v-529c0 -33 16 -57 46 -57c20 0 38 8 46 17l25 -79c-19 -18 -50 -31 -98 -31z" />
    <glyph glyph-name="lcommaaccent.alt1" horiz-adv-x="285" 
d="M196 -138c0 -58 -33 -111 -78 -143l-39 31c28 17 56 53 61 82c-2 -1 -9 -2 -14 -2c-27 0 -48 21 -48 51c0 31 24 56 55 56c33 0 63 -27 63 -75zM192 -12c-82 0 -124 44 -124 124v555h105v-529c0 -33 16 -57 46 -57c20 0 38 8 46 17l25 -79c-19 -18 -50 -31 -98 -31z" />
    <glyph glyph-name="lcaron.alt1" horiz-adv-x="327" 
d="M346 605c0 -58 -33 -111 -78 -143l-39 31c28 17 56 53 61 82c-2 -1 -9 -2 -14 -2c-27 0 -48 21 -48 51c0 31 24 56 55 56c33 0 63 -27 63 -75zM192 -12c-82 0 -124 44 -124 124v555h105v-529c0 -33 16 -57 46 -57c20 0 38 8 46 17l25 -79c-19 -18 -50 -31 -98 -31z" />
    <glyph glyph-name="ldot.alt1" horiz-adv-x="351" 
d="M192 -12c-82 0 -124 44 -124 124v555h105v-529c0 -33 16 -57 46 -57c20 0 38 8 46 17l25 -79c-19 -18 -50 -31 -98 -31zM365 244c0 -37 -32 -69 -70 -69s-70 32 -70 69c0 38 32 70 70 70s70 -32 70 -70z" />
    <glyph glyph-name="lslash.alt1" horiz-adv-x="314" 
d="M9 214v79l87 50v324h105v-264l88 51v-79l-88 -51v-186c0 -33 16 -57 46 -57c20 0 38 8 46 17l25 -79c-19 -18 -50 -31 -98 -31c-82 0 -124 44 -124 124v152z" />
    <glyph glyph-name="nacute" unicode="&#x144;" 
d="M462 700l-165 -144h-75l140 144h100zM499 0h-105v302c0 75 -38 100 -97 100c-54 0 -100 -32 -124 -65v-337h-105v483h105v-66c32 38 94 78 170 78c104 0 156 -56 156 -155v-340z" />
    <glyph glyph-name="napostrophe" unicode="&#x149;" 
d="M169 680c0 -58 -33 -111 -78 -143l-39 31c28 17 56 53 61 82c-2 -1 -9 -2 -14 -2c-27 0 -48 21 -48 51c0 31 24 56 55 56c33 0 63 -27 63 -75zM499 0h-105v302c0 75 -38 100 -97 100c-54 0 -100 -32 -124 -65v-337h-105v483h105v-66c32 38 94 78 170 78
c104 0 156 -56 156 -155v-340z" />
    <glyph glyph-name="ncaron" unicode="&#x148;" 
d="M334 556h-96l-96 144h66l78 -97l74 97h67zM499 0h-105v302c0 75 -38 100 -97 100c-54 0 -100 -32 -124 -65v-337h-105v483h105v-66c32 38 94 78 170 78c104 0 156 -56 156 -155v-340z" />
    <glyph glyph-name="ncommaaccent" unicode="&#x146;" 
d="M344 -138c0 -58 -33 -111 -78 -143l-39 31c28 17 56 53 61 82c-2 -1 -9 -2 -14 -2c-27 0 -48 21 -48 51c0 31 24 56 55 56c33 0 63 -27 63 -75zM499 0h-105v302c0 75 -38 100 -97 100c-54 0 -100 -32 -124 -65v-337h-105v483h105v-66c32 38 94 78 170 78
c104 0 156 -56 156 -155v-340z" />
    <glyph glyph-name="ntilde" unicode="&#xf1;" 
d="M499 0h-105v302c0 75 -38 100 -97 100c-54 0 -100 -32 -124 -65v-337h-105v483h105v-66c32 38 94 78 170 78c104 0 156 -56 156 -155v-340zM342 554c-70 0 -77 78 -119 78c-23 0 -42 -22 -42 -72h-57c0 82 36 134 103 134c69 0 77 -78 119 -78c23 0 41 22 41 72h58
c0 -82 -36 -134 -103 -134z" />
    <glyph glyph-name="eng" unicode="&#x14b;" 
d="M499 340v-368c0 -103 -53 -168 -160 -168c-55 0 -80 11 -113 35l31 85c18 -16 37 -27 66 -27c42 0 71 25 71 75v330c0 75 -38 100 -97 100c-54 0 -100 -32 -124 -65v-337h-105v483h105v-66c32 38 94 78 170 78c104 0 156 -56 156 -155z" />
    <glyph glyph-name="oacute" unicode="&#xf3;" horiz-adv-x="573" 
d="M466 700l-165 -144h-75l140 144h100zM286 -12c-153 0 -248 115 -248 254c0 138 95 253 248 253c155 0 249 -115 249 -253c0 -139 -94 -254 -249 -254zM286 81c90 0 140 75 140 161c0 85 -50 160 -140 160c-89 0 -139 -75 -139 -160c0 -86 50 -161 139 -161z" />
    <glyph glyph-name="obreve" unicode="&#x14f;" horiz-adv-x="573" 
d="M286 -12c-153 0 -248 115 -248 254c0 138 95 253 248 253c155 0 249 -115 249 -253c0 -139 -94 -254 -249 -254zM286 81c90 0 140 75 140 161c0 85 -50 160 -140 160c-89 0 -139 -75 -139 -160c0 -86 50 -161 139 -161zM462 622c-40 -54 -103 -88 -175 -88
c-71 0 -135 34 -176 88l48 40c29 -40 73 -66 128 -66c53 0 98 25 127 66z" />
    <glyph glyph-name="ocircumflex" unicode="&#xf4;" horiz-adv-x="573" 
d="M429 556h-67l-77 96l-75 -96h-66l93 144h96zM286 -12c-153 0 -248 115 -248 254c0 138 95 253 248 253c155 0 249 -115 249 -253c0 -139 -94 -254 -249 -254zM286 81c90 0 140 75 140 161c0 85 -50 160 -140 160c-89 0 -139 -75 -139 -160c0 -86 50 -161 139 -161z" />
    <glyph glyph-name="odieresis" unicode="&#xf6;" horiz-adv-x="573" 
d="M450 608c0 -33 -27 -59 -59 -59s-59 26 -59 59c0 32 27 58 59 58s59 -26 59 -58zM240 608c0 -33 -26 -59 -58 -59c-33 0 -59 26 -59 59c0 32 26 58 59 58c32 0 58 -26 58 -58zM286 -12c-153 0 -248 115 -248 254c0 138 95 253 248 253c155 0 249 -115 249 -253
c0 -139 -94 -254 -249 -254zM286 81c90 0 140 75 140 161c0 85 -50 160 -140 160c-89 0 -139 -75 -139 -160c0 -86 50 -161 139 -161z" />
    <glyph glyph-name="ograve" unicode="&#xf2;" horiz-adv-x="573" 
d="M286 -12c-153 0 -248 115 -248 254c0 138 95 253 248 253c155 0 249 -115 249 -253c0 -139 -94 -254 -249 -254zM286 81c90 0 140 75 140 161c0 85 -50 160 -140 160c-89 0 -139 -75 -139 -160c0 -86 50 -161 139 -161zM348 556h-75l-165 144h100z" />
    <glyph glyph-name="ohungarumlaut" unicode="&#x151;" horiz-adv-x="573" 
d="M347 700l-115 -144h-63l90 144h88zM493 700l-115 -144h-63l90 144h88zM286 -12c-153 0 -248 115 -248 254c0 138 95 253 248 253c155 0 249 -115 249 -253c0 -139 -94 -254 -249 -254zM286 81c90 0 140 75 140 161c0 85 -50 160 -140 160c-89 0 -139 -75 -139 -160
c0 -86 50 -161 139 -161z" />
    <glyph glyph-name="omacron" unicode="&#x14d;" horiz-adv-x="573" 
d="M468 566h-363v62h363v-62zM286 -12c-153 0 -248 115 -248 254c0 138 95 253 248 253c155 0 249 -115 249 -253c0 -139 -94 -254 -249 -254zM286 81c90 0 140 75 140 161c0 85 -50 160 -140 160c-89 0 -139 -75 -139 -160c0 -86 50 -161 139 -161z" />
    <glyph glyph-name="oslash" unicode="&#xf8;" horiz-adv-x="573" 
d="M118 0h-68l53 64c-42 46 -65 109 -65 178c0 138 95 253 248 253c54 0 102 -15 140 -39l22 27h69l-50 -61c44 -46 68 -110 68 -180c0 -139 -94 -254 -249 -254c-56 0 -105 15 -143 42zM286 81c90 0 140 75 140 161c0 36 -9 71 -27 98l-193 -233c22 -16 48 -26 80 -26z
M147 242c0 -35 8 -68 24 -95l191 232c-21 14 -46 23 -76 23c-89 0 -139 -75 -139 -160z" />
    <glyph glyph-name="oslashacute" unicode="&#x1ff;" horiz-adv-x="573" 
d="M466 700l-165 -144h-75l140 144h100zM118 0h-68l53 64c-42 46 -65 109 -65 178c0 138 95 253 248 253c54 0 102 -15 140 -39l22 27h69l-50 -61c44 -46 68 -110 68 -180c0 -139 -94 -254 -249 -254c-56 0 -105 15 -143 42zM286 81c90 0 140 75 140 161c0 36 -9 71 -27 98
l-193 -233c22 -16 48 -26 80 -26zM147 242c0 -35 8 -68 24 -95l191 232c-21 14 -46 23 -76 23c-89 0 -139 -75 -139 -160z" />
    <glyph glyph-name="otilde" unicode="&#xf5;" horiz-adv-x="573" 
d="M286 -12c-153 0 -248 115 -248 254c0 138 95 253 248 253c155 0 249 -115 249 -253c0 -139 -94 -254 -249 -254zM286 81c90 0 140 75 140 161c0 85 -50 160 -140 160c-89 0 -139 -75 -139 -160c0 -86 50 -161 139 -161zM344 554c-70 0 -77 78 -119 78
c-23 0 -42 -22 -42 -72h-57c0 82 36 134 103 134c69 0 77 -78 119 -78c23 0 41 22 41 72h58c0 -82 -36 -134 -103 -134z" />
    <glyph glyph-name="uni1ECD" unicode="&#x1ecd;" horiz-adv-x="573" 
d="M286 -12c-153 0 -248 115 -248 254c0 138 95 253 248 253c155 0 249 -115 249 -253c0 -139 -94 -254 -249 -254zM286 81c90 0 140 75 140 161c0 85 -50 160 -140 160c-89 0 -139 -75 -139 -160c0 -86 50 -161 139 -161zM287 -191c-32 0 -59 26 -59 59c0 32 27 59 59 59
s58 -27 58 -59c0 -33 -26 -59 -58 -59z" />
    <glyph glyph-name="uni1ECF" unicode="&#x1ecf;" horiz-adv-x="573" 
d="M286 -12c-153 0 -248 115 -248 254c0 138 95 253 248 253c155 0 249 -115 249 -253c0 -139 -94 -254 -249 -254zM286 81c90 0 140 75 140 161c0 85 -50 160 -140 160c-89 0 -139 -75 -139 -160c0 -86 50 -161 139 -161zM250 582l-40 12c11 34 39 56 77 56
c40 0 76 -21 76 -71c0 -21 -6 -35 -17 -52h-48c15 16 21 33 21 50c0 24 -14 35 -32 35c-19 0 -31 -12 -37 -30z" />
    <glyph glyph-name="uni1ED1" unicode="&#x1ed1;" horiz-adv-x="573" 
d="M429 556h-67l-77 96l-75 -96h-66l93 144h96zM630 770l-165 -144h-75l140 144h100zM286 -12c-153 0 -248 115 -248 254c0 138 95 253 248 253c155 0 249 -115 249 -253c0 -139 -94 -254 -249 -254zM286 81c90 0 140 75 140 161c0 85 -50 160 -140 160
c-89 0 -139 -75 -139 -160c0 -86 50 -161 139 -161z" />
    <glyph glyph-name="uni1ED3" unicode="&#x1ed3;" horiz-adv-x="573" 
d="M429 556h-67l-77 96l-75 -96h-66l93 144h96zM286 -12c-153 0 -248 115 -248 254c0 138 95 253 248 253c155 0 249 -115 249 -253c0 -139 -94 -254 -249 -254zM286 81c90 0 140 75 140 161c0 85 -50 160 -140 160c-89 0 -139 -75 -139 -160c0 -86 50 -161 139 -161z
M180 626h-75l-165 144h100z" />
    <glyph glyph-name="uni1ED5" unicode="&#x1ed5;" horiz-adv-x="573" 
d="M429 556h-67l-77 96l-75 -96h-66l93 144h96zM286 -12c-153 0 -248 115 -248 254c0 138 95 253 248 253c155 0 249 -115 249 -253c0 -139 -94 -254 -249 -254zM286 81c90 0 140 75 140 161c0 85 -50 160 -140 160c-89 0 -139 -75 -139 -160c0 -86 50 -161 139 -161z
M347 722l-40 12c11 34 39 56 77 56c40 0 76 -21 76 -71c0 -21 -6 -35 -17 -52h-48c15 16 21 33 21 50c0 24 -14 35 -32 35c-19 0 -31 -12 -37 -30z" />
    <glyph glyph-name="uni1ED7" unicode="&#x1ed7;" horiz-adv-x="573" 
d="M429 523h-67l-77 96l-75 -96h-66l93 144h96zM286 -12c-153 0 -248 115 -248 254c0 138 95 253 248 253c155 0 249 -115 249 -253c0 -139 -94 -254 -249 -254zM286 81c90 0 140 75 140 161c0 85 -50 160 -140 160c-89 0 -139 -75 -139 -160c0 -86 50 -161 139 -161z
M344 682c-70 0 -77 78 -119 78c-23 0 -42 -22 -42 -72h-57c0 82 36 134 103 134c69 0 77 -78 119 -78c23 0 41 22 41 72h58c0 -82 -36 -134 -103 -134z" />
    <glyph glyph-name="uni1ED9" unicode="&#x1ed9;" horiz-adv-x="573" 
d="M429 556h-67l-77 96l-75 -96h-66l93 144h96zM286 -12c-153 0 -248 115 -248 254c0 138 95 253 248 253c155 0 249 -115 249 -253c0 -139 -94 -254 -249 -254zM286 81c90 0 140 75 140 161c0 85 -50 160 -140 160c-89 0 -139 -75 -139 -160c0 -86 50 -161 139 -161z
M287 -191c-32 0 -59 26 -59 59c0 32 27 59 59 59s58 -27 58 -59c0 -33 -26 -59 -58 -59z" />
    <glyph glyph-name="ohorn" unicode="&#x1a1;" horiz-adv-x="573" 
d="M541 531c0 -49 -26 -94 -62 -124c36 -44 56 -102 56 -165c0 -139 -94 -254 -249 -254c-153 0 -248 115 -248 254c0 138 95 253 248 253c66 0 122 -22 163 -57c21 18 38 44 42 67c-2 -1 -8 -2 -13 -2c-25 0 -44 19 -44 47c0 27 22 50 50 50c30 0 57 -25 57 -69zM286 81
c90 0 140 75 140 161c0 85 -50 160 -140 160c-89 0 -139 -75 -139 -160c0 -86 50 -161 139 -161z" />
    <glyph glyph-name="uni1EDB" unicode="&#x1edb;" horiz-adv-x="573" 
d="M466 700l-165 -144h-75l140 144h100zM541 531c0 -49 -26 -94 -62 -124c36 -44 56 -102 56 -165c0 -139 -94 -254 -249 -254c-153 0 -248 115 -248 254c0 138 95 253 248 253c66 0 122 -22 163 -57c21 18 38 44 42 67c-2 -1 -8 -2 -13 -2c-25 0 -44 19 -44 47
c0 27 22 50 50 50c30 0 57 -25 57 -69zM286 81c90 0 140 75 140 161c0 85 -50 160 -140 160c-89 0 -139 -75 -139 -160c0 -86 50 -161 139 -161z" />
    <glyph glyph-name="uni1EDD" unicode="&#x1edd;" horiz-adv-x="573" 
d="M541 531c0 -49 -26 -94 -62 -124c36 -44 56 -102 56 -165c0 -139 -94 -254 -249 -254c-153 0 -248 115 -248 254c0 138 95 253 248 253c66 0 122 -22 163 -57c21 18 38 44 42 67c-2 -1 -8 -2 -13 -2c-25 0 -44 19 -44 47c0 27 22 50 50 50c30 0 57 -25 57 -69zM286 81
c90 0 140 75 140 161c0 85 -50 160 -140 160c-89 0 -139 -75 -139 -160c0 -86 50 -161 139 -161zM348 556h-75l-165 144h100z" />
    <glyph glyph-name="uni1EDF" unicode="&#x1edf;" horiz-adv-x="573" 
d="M541 531c0 -49 -26 -94 -62 -124c36 -44 56 -102 56 -165c0 -139 -94 -254 -249 -254c-153 0 -248 115 -248 254c0 138 95 253 248 253c66 0 122 -22 163 -57c21 18 38 44 42 67c-2 -1 -8 -2 -13 -2c-25 0 -44 19 -44 47c0 27 22 50 50 50c30 0 57 -25 57 -69zM286 81
c90 0 140 75 140 161c0 85 -50 160 -140 160c-89 0 -139 -75 -139 -160c0 -86 50 -161 139 -161zM250 582l-40 12c11 34 39 56 77 56c40 0 76 -21 76 -71c0 -21 -6 -35 -17 -52h-48c15 16 21 33 21 50c0 24 -14 35 -32 35c-19 0 -31 -12 -37 -30z" />
    <glyph glyph-name="uni1EE1" unicode="&#x1ee1;" horiz-adv-x="573" 
d="M541 531c0 -49 -26 -94 -62 -124c36 -44 56 -102 56 -165c0 -139 -94 -254 -249 -254c-153 0 -248 115 -248 254c0 138 95 253 248 253c66 0 122 -22 163 -57c21 18 38 44 42 67c-2 -1 -8 -2 -13 -2c-25 0 -44 19 -44 47c0 27 22 50 50 50c30 0 57 -25 57 -69zM286 81
c90 0 140 75 140 161c0 85 -50 160 -140 160c-89 0 -139 -75 -139 -160c0 -86 50 -161 139 -161zM344 554c-70 0 -77 78 -119 78c-23 0 -42 -22 -42 -72h-57c0 82 36 134 103 134c69 0 77 -78 119 -78c23 0 41 22 41 72h58c0 -82 -36 -134 -103 -134z" />
    <glyph glyph-name="uni1EE3" unicode="&#x1ee3;" horiz-adv-x="573" 
d="M541 531c0 -49 -26 -94 -62 -124c36 -44 56 -102 56 -165c0 -139 -94 -254 -249 -254c-153 0 -248 115 -248 254c0 138 95 253 248 253c66 0 122 -22 163 -57c21 18 38 44 42 67c-2 -1 -8 -2 -13 -2c-25 0 -44 19 -44 47c0 27 22 50 50 50c30 0 57 -25 57 -69zM286 81
c90 0 140 75 140 161c0 85 -50 160 -140 160c-89 0 -139 -75 -139 -160c0 -86 50 -161 139 -161zM287 -191c-32 0 -59 26 -59 59c0 32 27 59 59 59s58 -27 58 -59c0 -33 -26 -59 -58 -59z" />
    <glyph glyph-name="oe" unicode="&#x153;" horiz-adv-x="944" 
d="M908 207h-372c8 -73 62 -133 153 -133c48 0 103 19 138 53l48 -69c-49 -46 -120 -70 -196 -70c-114 0 -170 69 -200 120c-28 -49 -83 -120 -193 -120c-153 0 -248 115 -248 254c0 138 95 253 248 253c110 0 166 -73 194 -121c27 49 85 121 191 121
c145 0 237 -111 237 -263v-25zM535 281h272c-3 57 -42 128 -137 128c-89 0 -131 -69 -135 -128zM426 242c0 90 -53 160 -140 160c-85 0 -139 -70 -139 -160c0 -91 54 -162 139 -162c87 0 140 71 140 162z" />
    <glyph glyph-name="uni1E57" unicode="&#x1e57;" horiz-adv-x="578" 
d="M328 -12c-61 0 -116 27 -155 79v-251h-105v667h105v-66c36 48 92 78 155 78c125 0 214 -94 214 -253s-89 -254 -214 -254zM297 81c83 0 136 67 136 161c0 93 -53 160 -136 160c-49 0 -101 -29 -124 -65v-191c23 -35 75 -65 124 -65zM296 548c-32 0 -59 26 -59 59
c0 32 27 59 59 59s58 -27 58 -59c0 -33 -26 -59 -58 -59z" />
    <glyph glyph-name="racute" unicode="&#x155;" horiz-adv-x="347" 
d="M378 700l-165 -144h-75l140 144h100zM173 0h-105v483h105v-71c36 46 94 82 157 82v-104c-9 2 -20 3 -33 3c-44 0 -103 -30 -124 -64v-329z" />
    <glyph glyph-name="rcaron" unicode="&#x159;" horiz-adv-x="347" 
d="M247 556h-96l-96 144h66l78 -97l74 97h67zM173 0h-105v483h105v-71c36 46 94 82 157 82v-104c-9 2 -20 3 -33 3c-44 0 -103 -30 -124 -64v-329z" />
    <glyph glyph-name="rcommaaccent" unicode="&#x157;" horiz-adv-x="347" 
d="M238 -138c0 -58 -33 -111 -78 -143l-39 31c28 17 56 53 61 82c-2 -1 -9 -2 -14 -2c-27 0 -48 21 -48 51c0 31 24 56 55 56c33 0 63 -27 63 -75zM173 0h-105v483h105v-71c36 46 94 82 157 82v-104c-9 2 -20 3 -33 3c-44 0 -103 -30 -124 -64v-329z" />
    <glyph glyph-name="sacute" unicode="&#x15b;" horiz-adv-x="472" 
d="M413 700l-165 -144h-75l140 144h100zM233 -12c-82 0 -157 26 -207 75l48 76c34 -35 101 -68 164 -68s95 27 95 65c0 95 -292 27 -292 212c0 79 68 147 190 147c82 0 144 -29 188 -68l-44 -74c-29 33 -83 58 -143 58c-55 0 -90 -25 -90 -59c0 -86 292 -22 292 -214
c0 -85 -71 -150 -201 -150z" />
    <glyph glyph-name="scaron" unicode="&#x161;" horiz-adv-x="472" 
d="M283 556h-96l-96 144h66l78 -97l74 97h67zM233 -12c-82 0 -157 26 -207 75l48 76c34 -35 101 -68 164 -68s95 27 95 65c0 95 -292 27 -292 212c0 79 68 147 190 147c82 0 144 -29 188 -68l-44 -74c-29 33 -83 58 -143 58c-55 0 -90 -25 -90 -59c0 -86 292 -22 292 -214
c0 -85 -71 -150 -201 -150z" />
    <glyph glyph-name="scircumflex" unicode="&#x15d;" horiz-adv-x="472" 
d="M376 556h-67l-77 96l-75 -96h-66l93 144h96zM233 -12c-82 0 -157 26 -207 75l48 76c34 -35 101 -68 164 -68s95 27 95 65c0 95 -292 27 -292 212c0 79 68 147 190 147c82 0 144 -29 188 -68l-44 -74c-29 33 -83 58 -143 58c-55 0 -90 -25 -90 -59c0 -86 292 -22 292 -214
c0 -85 -71 -150 -201 -150z" />
    <glyph glyph-name="scedilla" unicode="&#x15f;" horiz-adv-x="472" 
d="M232 -194c-46 0 -86 15 -106 31l22 46c25 -20 54 -29 81 -29c29 0 56 12 56 36c0 19 -11 30 -33 30c-13 0 -26 -6 -34 -15l-41 23l23 61c-69 6 -131 31 -174 74l48 76c34 -35 101 -68 164 -68s95 27 95 65c0 95 -292 27 -292 212c0 79 68 147 190 147
c82 0 144 -29 188 -68l-44 -74c-29 33 -83 58 -143 58c-55 0 -90 -25 -90 -59c0 -86 292 -22 292 -214c0 -81 -64 -143 -180 -149l-17 -42c10 7 23 11 36 11c38 0 67 -28 67 -69c0 -51 -49 -83 -108 -83z" />
    <glyph glyph-name="scommaaccent" unicode="&#x219;" horiz-adv-x="472" 
d="M304 -138c0 -58 -33 -111 -78 -143l-39 31c28 17 56 53 61 82c-2 -1 -9 -2 -14 -2c-27 0 -48 21 -48 51c0 31 24 56 55 56c33 0 63 -27 63 -75zM233 -12c-82 0 -157 26 -207 75l48 76c34 -35 101 -68 164 -68s95 27 95 65c0 95 -292 27 -292 212c0 79 68 147 190 147
c82 0 144 -29 188 -68l-44 -74c-29 33 -83 58 -143 58c-55 0 -90 -25 -90 -59c0 -86 292 -22 292 -214c0 -85 -71 -150 -201 -150z" />
    <glyph glyph-name="uni1E61" unicode="&#x1e61;" horiz-adv-x="472" 
d="M233 -12c-82 0 -157 26 -207 75l48 76c34 -35 101 -68 164 -68s95 27 95 65c0 95 -292 27 -292 212c0 79 68 147 190 147c82 0 144 -29 188 -68l-44 -74c-29 33 -83 58 -143 58c-55 0 -90 -25 -90 -59c0 -86 292 -22 292 -214c0 -85 -71 -150 -201 -150zM236 548
c-32 0 -59 26 -59 59c0 32 27 59 59 59s58 -27 58 -59c0 -33 -26 -59 -58 -59z" />
    <glyph glyph-name="germandbls" unicode="&#xdf;" horiz-adv-x="623" 
d="M606 140c0 -85 -71 -152 -195 -152c-97 0 -147 35 -192 78l47 73c28 -36 83 -67 145 -67c63 0 94 31 94 65c0 94 -272 33 -272 212c0 106 133 124 133 177c0 38 -45 58 -87 58c-59 0 -106 -37 -106 -99v-485h-105v485c0 105 80 192 213 192c100 0 192 -52 192 -137
c0 -111 -139 -119 -139 -188c0 -85 272 -20 272 -212z" />
    <glyph glyph-name="longs" unicode="&#x17f;" horiz-adv-x="308" 
d="M198 0h-105v391h-80v92h80v27c0 105 61 167 153 167c43 0 86 -11 116 -42l-41 -72c-14 13 -32 21 -56 21c-41 0 -67 -28 -67 -74v-510z" />
    <glyph glyph-name="tbar" unicode="&#x167;" horiz-adv-x="319" 
d="M213 -12c-81 0 -124 44 -124 124v104h-80v62h80v113h-80v92h80v132h105v-132h98v-92h-98v-113h69v-62h-69v-78c0 -33 16 -57 46 -57c20 0 39 8 47 17l25 -79c-19 -18 -50 -31 -99 -31z" />
    <glyph glyph-name="tcaron" unicode="&#x165;" horiz-adv-x="351" 
d="M369 680c0 -58 -33 -111 -78 -143l-39 31c28 17 56 53 61 82c-2 -1 -9 -2 -14 -2c-27 0 -48 21 -48 51c0 31 24 56 55 56c33 0 63 -27 63 -75zM213 -12c-81 0 -124 44 -124 124v279h-80v92h80v132h105v-132h98v-92h-98v-253c0 -33 16 -57 46 -57c20 0 39 8 47 17l25 -79
c-19 -18 -50 -31 -99 -31z" />
    <glyph glyph-name="tcommaaccent" unicode="&#x163;" horiz-adv-x="319" 
d="M224 -138c0 -58 -33 -111 -78 -143l-39 31c28 17 56 53 61 82c-2 -1 -9 -2 -14 -2c-27 0 -48 21 -48 51c0 31 24 56 55 56c33 0 63 -27 63 -75zM213 -12c-81 0 -124 44 -124 124v279h-80v92h80v132h105v-132h98v-92h-98v-253c0 -33 16 -57 46 -57c20 0 39 8 47 17l25 -79
c-19 -18 -50 -31 -99 -31z" />
    <glyph glyph-name="uni021B" unicode="&#x21b;" horiz-adv-x="319" 
d="M224 -138c0 -58 -33 -111 -78 -143l-39 31c28 17 56 53 61 82c-2 -1 -9 -2 -14 -2c-27 0 -48 21 -48 51c0 31 24 56 55 56c33 0 63 -27 63 -75zM213 -12c-81 0 -124 44 -124 124v279h-80v92h80v132h105v-132h98v-92h-98v-253c0 -33 16 -57 46 -57c20 0 39 8 47 17l25 -79
c-19 -18 -50 -31 -99 -31z" />
    <glyph glyph-name="uni1E6B" unicode="&#x1e6b;" horiz-adv-x="319" 
d="M213 -12c-81 0 -124 44 -124 124v279h-80v92h80v132h105v-132h98v-92h-98v-253c0 -33 16 -57 46 -57c20 0 39 8 47 17l25 -79c-19 -18 -50 -31 -99 -31zM147 715c-32 0 -59 26 -59 59c0 32 27 59 59 59s58 -27 58 -59c0 -33 -26 -59 -58 -59z" />
    <glyph glyph-name="uacute" unicode="&#xfa;" 
d="M462 700l-165 -144h-75l140 144h100zM499 0h-105v64c-35 -39 -95 -76 -171 -76c-104 0 -155 54 -155 153v342h105v-304c0 -75 38 -98 97 -98c53 0 99 30 124 63v339h105v-483z" />
    <glyph glyph-name="ubreve" unicode="&#x16d;" 
d="M499 0h-105v64c-35 -39 -95 -76 -171 -76c-104 0 -155 54 -155 153v342h105v-304c0 -75 38 -98 97 -98c53 0 99 30 124 63v339h105v-483zM459 622c-40 -54 -103 -88 -175 -88c-71 0 -135 34 -176 88l48 40c29 -40 73 -66 128 -66c53 0 98 25 127 66z" />
    <glyph glyph-name="ucircumflex" unicode="&#xfb;" 
d="M426 556h-67l-77 96l-75 -96h-66l93 144h96zM499 0h-105v64c-35 -39 -95 -76 -171 -76c-104 0 -155 54 -155 153v342h105v-304c0 -75 38 -98 97 -98c53 0 99 30 124 63v339h105v-483z" />
    <glyph glyph-name="udieresis" unicode="&#xfc;" 
d="M446 608c0 -33 -27 -59 -59 -59s-59 26 -59 59c0 32 27 58 59 58s59 -26 59 -58zM236 608c0 -33 -26 -59 -58 -59c-33 0 -59 26 -59 59c0 32 26 58 59 58c32 0 58 -26 58 -58zM499 0h-105v64c-35 -39 -95 -76 -171 -76c-104 0 -155 54 -155 153v342h105v-304
c0 -75 38 -98 97 -98c53 0 99 30 124 63v339h105v-483z" />
    <glyph glyph-name="ugrave" unicode="&#xf9;" 
d="M499 0h-105v64c-35 -39 -95 -76 -171 -76c-104 0 -155 54 -155 153v342h105v-304c0 -75 38 -98 97 -98c53 0 99 30 124 63v339h105v-483zM344 556h-75l-165 144h100z" />
    <glyph glyph-name="uhungarumlaut" unicode="&#x171;" 
d="M499 0h-105v64c-35 -39 -95 -76 -171 -76c-104 0 -155 54 -155 153v342h105v-304c0 -75 38 -98 97 -98c53 0 99 30 124 63v339h105v-483zM344 700l-115 -144h-63l90 144h88zM490 700l-115 -144h-63l90 144h88z" />
    <glyph glyph-name="umacron" unicode="&#x16b;" 
d="M499 0h-105v64c-35 -39 -95 -76 -171 -76c-104 0 -155 54 -155 153v342h105v-304c0 -75 38 -98 97 -98c53 0 99 30 124 63v339h105v-483zM464 566h-363v62h363v-62z" />
    <glyph glyph-name="uogonek" unicode="&#x173;" 
d="M499 0c-48 -24 -73 -55 -73 -93c0 -32 18 -46 40 -46c25 0 39 15 47 38l45 -27c-16 -32 -45 -58 -92 -58c-50 0 -95 26 -95 89c0 37 18 71 48 97h-25v64c-35 -39 -95 -76 -171 -76c-104 0 -155 54 -155 153v342h105v-304c0 -75 38 -98 97 -98c53 0 99 30 124 63v339h105
v-483z" />
    <glyph glyph-name="uring" unicode="&#x16f;" 
d="M284 536c-56 0 -102 46 -102 102s46 103 102 103s101 -47 101 -103s-45 -102 -101 -102zM284 586c29 0 51 24 51 52c0 29 -22 52 -51 52c-28 0 -52 -23 -52 -52c0 -28 24 -52 52 -52zM499 0h-105v64c-35 -39 -95 -76 -171 -76c-104 0 -155 54 -155 153v342h105v-304
c0 -75 38 -98 97 -98c53 0 99 30 124 63v339h105v-483z" />
    <glyph glyph-name="utilde" unicode="&#x169;" 
d="M499 0h-105v64c-35 -39 -95 -76 -171 -76c-104 0 -155 54 -155 153v342h105v-304c0 -75 38 -98 97 -98c53 0 99 30 124 63v339h105v-483zM341 554c-70 0 -77 78 -119 78c-23 0 -42 -22 -42 -72h-57c0 82 36 134 103 134c69 0 77 -78 119 -78c23 0 41 22 41 72h58
c0 -82 -36 -134 -103 -134z" />
    <glyph glyph-name="uni1EE5" unicode="&#x1ee5;" 
d="M499 0h-105v64c-35 -39 -95 -76 -171 -76c-104 0 -155 54 -155 153v342h105v-304c0 -75 38 -98 97 -98c53 0 99 30 124 63v339h105v-483zM285 -191c-32 0 -59 26 -59 59c0 32 27 59 59 59s58 -27 58 -59c0 -33 -26 -59 -58 -59z" />
    <glyph glyph-name="uhorn" unicode="&#x1b0;" 
d="M499 0h-105v64c-35 -39 -95 -76 -171 -76c-104 0 -155 54 -155 153v342h105v-304c0 -75 38 -98 97 -98c53 0 99 30 124 63v339h105v-31c19 18 33 41 36 63c-1 -1 -8 -2 -12 -2c-26 0 -45 19 -45 47c0 27 22 50 50 50c31 0 58 -25 58 -69c0 -53 -31 -108 -87 -142v-399z
" />
    <glyph glyph-name="uni1EE7" unicode="&#x1ee7;" 
d="M499 0h-105v64c-35 -39 -95 -76 -171 -76c-104 0 -155 54 -155 153v342h105v-304c0 -75 38 -98 97 -98c53 0 99 30 124 63v339h105v-483zM247 582l-40 12c11 34 39 56 77 56c40 0 76 -21 76 -71c0 -21 -6 -35 -17 -52h-48c15 16 21 33 21 50c0 24 -14 35 -32 35
c-19 0 -31 -12 -37 -30z" />
    <glyph glyph-name="uni1EE9" unicode="&#x1ee9;" 
d="M462 700l-165 -144h-75l140 144h100zM499 0h-105v64c-35 -39 -95 -76 -171 -76c-104 0 -155 54 -155 153v342h105v-304c0 -75 38 -98 97 -98c53 0 99 30 124 63v339h105v-31c19 18 33 41 36 63c-1 -1 -8 -2 -12 -2c-26 0 -45 19 -45 47c0 27 22 50 50 50
c31 0 58 -25 58 -69c0 -53 -31 -108 -87 -142v-399z" />
    <glyph glyph-name="uni1EEB" unicode="&#x1eeb;" 
d="M344 556h-75l-165 144h100zM499 0h-105v64c-35 -39 -95 -76 -171 -76c-104 0 -155 54 -155 153v342h105v-304c0 -75 38 -98 97 -98c53 0 99 30 124 63v339h105v-31c19 18 33 41 36 63c-1 -1 -8 -2 -12 -2c-26 0 -45 19 -45 47c0 27 22 50 50 50c31 0 58 -25 58 -69
c0 -53 -31 -108 -87 -142v-399z" />
    <glyph glyph-name="uni1EED" unicode="&#x1eed;" 
d="M247 582l-40 12c11 34 39 56 77 56c40 0 76 -21 76 -71c0 -21 -6 -35 -17 -52h-48c15 16 21 33 21 50c0 24 -14 35 -32 35c-19 0 -31 -12 -37 -30zM499 0h-105v64c-35 -39 -95 -76 -171 -76c-104 0 -155 54 -155 153v342h105v-304c0 -75 38 -98 97 -98c53 0 99 30 124 63
v339h105v-31c19 18 33 41 36 63c-1 -1 -8 -2 -12 -2c-26 0 -45 19 -45 47c0 27 22 50 50 50c31 0 58 -25 58 -69c0 -53 -31 -108 -87 -142v-399z" />
    <glyph glyph-name="uni1EEF" unicode="&#x1eef;" 
d="M499 0h-105v64c-35 -39 -95 -76 -171 -76c-104 0 -155 54 -155 153v342h105v-304c0 -75 38 -98 97 -98c53 0 99 30 124 63v339h105v-31c19 18 33 41 36 63c-1 -1 -8 -2 -12 -2c-26 0 -45 19 -45 47c0 27 22 50 50 50c31 0 58 -25 58 -69c0 -53 -31 -108 -87 -142v-399z
M341 554c-70 0 -77 78 -119 78c-23 0 -42 -22 -42 -72h-57c0 82 36 134 103 134c69 0 77 -78 119 -78c23 0 41 22 41 72h58c0 -82 -36 -134 -103 -134z" />
    <glyph glyph-name="uni1EF1" unicode="&#x1ef1;" 
d="M285 -191c-32 0 -59 26 -59 59c0 32 27 59 59 59s58 -27 58 -59c0 -33 -26 -59 -58 -59zM499 0h-105v64c-35 -39 -95 -76 -171 -76c-104 0 -155 54 -155 153v342h105v-304c0 -75 38 -98 97 -98c53 0 99 30 124 63v339h105v-31c19 18 33 41 36 63c-1 -1 -8 -2 -12 -2
c-26 0 -45 19 -45 47c0 27 22 50 50 50c31 0 58 -25 58 -69c0 -53 -31 -108 -87 -142v-399z" />
    <glyph glyph-name="wacute" unicode="&#x1e83;" horiz-adv-x="754" 
d="M556 700l-165 -144h-75l140 144h100zM599 0h-110l-112 354l-112 -354h-110l-150 483h109l102 -351l115 351h92l115 -351l102 351h109z" />
    <glyph glyph-name="wcircumflex" unicode="&#x175;" horiz-adv-x="754" 
d="M520 556h-67l-77 96l-75 -96h-66l93 144h96zM599 0h-110l-112 354l-112 -354h-110l-150 483h109l102 -351l115 351h92l115 -351l102 351h109z" />
    <glyph glyph-name="wdieresis" unicode="&#x1e85;" horiz-adv-x="754" 
d="M540 608c0 -33 -27 -59 -59 -59s-59 26 -59 59c0 32 27 58 59 58s59 -26 59 -58zM330 608c0 -33 -26 -59 -58 -59c-33 0 -59 26 -59 59c0 32 26 58 59 58c32 0 58 -26 58 -58zM599 0h-110l-112 354l-112 -354h-110l-150 483h109l102 -351l115 351h92l115 -351l102 351
h109z" />
    <glyph glyph-name="wgrave" unicode="&#x1e81;" horiz-adv-x="754" 
d="M599 0h-110l-112 354l-112 -354h-110l-150 483h109l102 -351l115 351h92l115 -351l102 351h109zM438 556h-75l-165 144h100z" />
    <glyph glyph-name="yacute" unicode="&#xfd;" horiz-adv-x="503" 
d="M47 -189l16 94c11 -5 28 -8 40 -8c33 0 55 10 69 42l24 55l-198 489h112l141 -362l141 362h113l-233 -570c-33 -82 -91 -108 -166 -109c-15 0 -44 3 -59 7zM430 700l-165 -144h-75l140 144h100z" />
    <glyph glyph-name="ycircumflex" unicode="&#x177;" horiz-adv-x="503" 
d="M47 -189l16 94c11 -5 28 -8 40 -8c33 0 55 10 69 42l24 55l-198 489h112l141 -362l141 362h113l-233 -570c-33 -82 -91 -108 -166 -109c-15 0 -44 3 -59 7zM394 556h-67l-77 96l-75 -96h-66l93 144h96z" />
    <glyph glyph-name="ydieresis" unicode="&#xff;" horiz-adv-x="503" 
d="M47 -189l16 94c11 -5 28 -8 40 -8c33 0 55 10 69 42l24 55l-198 489h112l141 -362l141 362h113l-233 -570c-33 -82 -91 -108 -166 -109c-15 0 -44 3 -59 7zM415 608c0 -33 -27 -59 -59 -59s-59 26 -59 59c0 32 27 58 59 58s59 -26 59 -58zM205 608c0 -33 -26 -59 -58 -59
c-33 0 -59 26 -59 59c0 32 26 58 59 58c32 0 58 -26 58 -58z" />
    <glyph glyph-name="ygrave" unicode="&#x1ef3;" horiz-adv-x="503" 
d="M47 -189l16 94c11 -5 28 -8 40 -8c33 0 55 10 69 42l24 55l-198 489h112l141 -362l141 362h113l-233 -570c-33 -82 -91 -108 -166 -109c-15 0 -44 3 -59 7zM312 556h-75l-165 144h100z" />
    <glyph glyph-name="yacute.alt1" 
d="M462 700l-165 -144h-75l140 144h100zM257 -196c-81 0 -142 23 -195 72l49 76c36 -44 92 -62 146 -62c86 0 137 48 137 134v56c-35 -39 -95 -76 -171 -76c-104 0 -155 54 -155 153v326h105v-288c0 -75 38 -98 97 -98c53 0 99 30 124 63v323h105v-459
c0 -145 -103 -220 -242 -220z" />
    <glyph glyph-name="ycircumflex.alt1" 
d="M427 556h-67l-77 96l-75 -96h-66l93 144h96zM257 -196c-81 0 -142 23 -195 72l49 76c36 -44 92 -62 146 -62c86 0 137 48 137 134v56c-35 -39 -95 -76 -171 -76c-104 0 -155 54 -155 153v326h105v-288c0 -75 38 -98 97 -98c53 0 99 30 124 63v323h105v-459
c0 -145 -103 -220 -242 -220z" />
    <glyph glyph-name="ydieresis.alt1" 
d="M448 608c0 -33 -27 -59 -59 -59s-59 26 -59 59c0 32 27 58 59 58s59 -26 59 -58zM238 608c0 -33 -26 -59 -58 -59c-33 0 -59 26 -59 59c0 32 26 58 59 58c32 0 58 -26 58 -58zM257 -196c-81 0 -142 23 -195 72l49 76c36 -44 92 -62 146 -62c86 0 137 48 137 134v56
c-35 -39 -95 -76 -171 -76c-104 0 -155 54 -155 153v326h105v-288c0 -75 38 -98 97 -98c53 0 99 30 124 63v323h105v-459c0 -145 -103 -220 -242 -220z" />
    <glyph glyph-name="ygrave.alt1" 
d="M257 -196c-81 0 -142 23 -195 72l49 76c36 -44 92 -62 146 -62c86 0 137 48 137 134v56c-35 -39 -95 -76 -171 -76c-104 0 -155 54 -155 153v326h105v-288c0 -75 38 -98 97 -98c53 0 99 30 124 63v323h105v-459c0 -145 -103 -220 -242 -220zM344 556h-75l-165 144h100z
" />
    <glyph glyph-name="zacute" unicode="&#x17a;" horiz-adv-x="476" 
d="M416 700l-165 -144h-75l140 144h100zM429 0h-383v79l239 312h-239v92h379v-77l-241 -315h245v-91z" />
    <glyph glyph-name="zcaron" unicode="&#x17e;" horiz-adv-x="476" 
d="M284 556h-96l-96 144h66l78 -97l74 97h67zM429 0h-383v79l239 312h-239v92h379v-77l-241 -315h245v-91z" />
    <glyph glyph-name="zdotaccent" unicode="&#x17c;" horiz-adv-x="476" 
d="M429 0h-383v79l239 312h-239v92h379v-77l-241 -315h245v-91zM236 548c-32 0 -59 26 -59 59c0 32 27 59 59 59s58 -27 58 -59c0 -33 -26 -59 -58 -59z" />
    <glyph glyph-name="eth" unicode="&#xf0;" horiz-adv-x="573" 
d="M111 481l-22 52l112 49c-22 15 -45 28 -67 42l57 85c42 -25 81 -51 118 -79l105 46l22 -51l-78 -35c107 -94 177 -204 177 -340c0 -153 -94 -262 -249 -262c-149 0 -248 102 -248 240c0 139 92 240 217 240c66 0 118 -29 159 -91c-31 63 -90 118 -158 168zM286 81
c90 0 140 68 140 147s-50 147 -140 147c-89 0 -139 -68 -139 -147s50 -147 139 -147z" />
    <glyph glyph-name="thorn" unicode="&#xfe;" horiz-adv-x="578" 
d="M328 -12c-61 0 -116 27 -155 79v-251h-105v851h105v-250c36 48 92 78 155 78c125 0 214 -94 214 -253s-89 -254 -214 -254zM297 81c83 0 136 67 136 161c0 93 -53 160 -136 160c-49 0 -101 -29 -124 -65v-191c23 -35 75 -65 124 -65z" />
    <glyph glyph-name="Aacute.smcp" unicode="&#xf7e1;" horiz-adv-x="586" 
d="M472 750l-165 -144h-75l140 144h100zM227 550h132l227 -550h-122l-42 103h-258l-41 -103h-123zM390 198l-97 240l-97 -240h194z" />
    <glyph glyph-name="Abreve.smcp" unicode="&#xf66d;" horiz-adv-x="586" 
d="M227 550h132l227 -550h-122l-42 103h-258l-41 -103h-123zM390 198l-97 240l-97 -240h194zM469 672c-40 -54 -103 -88 -175 -88c-71 0 -135 34 -176 88l48 40c29 -40 73 -66 128 -66c53 0 98 25 127 66z" />
    <glyph glyph-name="Acircumflex.smcp" unicode="&#xf7e2;" horiz-adv-x="586" 
d="M437 606h-67l-77 96l-75 -96h-66l93 144h96zM227 550h132l227 -550h-122l-42 103h-258l-41 -103h-123zM390 198l-97 240l-97 -240h194z" />
    <glyph glyph-name="Adieresis.smcp" unicode="&#xf7e4;" horiz-adv-x="586" 
d="M457 668c0 -33 -27 -59 -59 -59s-59 26 -59 59c0 32 27 58 59 58s59 -26 59 -58zM247 668c0 -33 -26 -59 -58 -59c-33 0 -59 26 -59 59c0 32 26 58 59 58c32 0 58 -26 58 -58zM227 550h132l227 -550h-122l-42 103h-258l-41 -103h-123zM390 198l-97 240l-97 -240h194z" />
    <glyph glyph-name="Agrave.smcp" unicode="&#xf7e0;" horiz-adv-x="586" 
d="M227 550h132l227 -550h-122l-42 103h-258l-41 -103h-123zM390 198l-97 240l-97 -240h194zM354 606h-75l-165 144h100z" />
    <glyph glyph-name="Amacron.smcp" unicode="&#xf66e;" horiz-adv-x="586" 
d="M475 616h-363v62h363v-62zM227 550h132l227 -550h-122l-42 103h-258l-41 -103h-123zM390 198l-97 240l-97 -240h194z" />
    <glyph glyph-name="Aogonek.smcp" unicode="&#xf66f;" horiz-adv-x="586" 
d="M227 550h132l227 -550c-48 -24 -73 -55 -73 -93c0 -32 18 -46 40 -46c25 0 39 15 47 38l45 -27c-16 -32 -45 -58 -92 -58c-50 0 -95 26 -95 89c0 37 18 71 48 97h-42l-42 103h-258l-41 -103h-123zM390 198l-97 240l-97 -240h194z" />
    <glyph glyph-name="Aring.smcp" unicode="&#xf7e5;" horiz-adv-x="586" 
d="M294 572c-56 0 -102 46 -102 102s46 103 102 103s101 -47 101 -103s-45 -102 -101 -102zM294 622c29 0 51 24 51 52c0 29 -22 52 -51 52c-28 0 -52 -23 -52 -52c0 -28 24 -52 52 -52zM227 550h132l227 -550h-122l-42 103h-258l-41 -103h-123zM390 198l-97 240l-97 -240
h194z" />
    <glyph glyph-name="Atilde.smcp" unicode="&#xf7e3;" horiz-adv-x="586" 
d="M227 550h132l227 -550h-122l-42 103h-258l-41 -103h-123zM390 198l-97 240l-97 -240h194zM351 604c-70 0 -77 78 -119 78c-23 0 -42 -22 -42 -72h-57c0 82 36 134 103 134c69 0 77 -78 119 -78c23 0 41 22 41 72h58c0 -82 -36 -134 -103 -134z" />
    <glyph glyph-name="uni1EA0.smcp" horiz-adv-x="586" 
d="M227 550h132l227 -550h-122l-42 103h-258l-41 -103h-123zM390 198l-97 240l-97 -240h194zM294 -191c-32 0 -59 26 -59 59c0 32 27 59 59 59s58 -27 58 -59c0 -33 -26 -59 -58 -59z" />
    <glyph glyph-name="uni1EA2.smcp" horiz-adv-x="586" 
d="M227 550h132l227 -550h-122l-42 103h-258l-41 -103h-123zM390 198l-97 240l-97 -240h194zM257 635l-40 12c11 34 39 56 77 56c40 0 76 -21 76 -71c0 -21 -6 -35 -17 -52h-48c15 16 21 33 21 50c0 24 -14 35 -32 35c-19 0 -31 -12 -37 -30z" />
    <glyph glyph-name="uni1EA4.smcp" horiz-adv-x="586" 
d="M437 606h-67l-77 96l-75 -96h-66l93 144h96zM636 820l-165 -144h-75l140 144h100zM227 550h132l227 -550h-122l-42 103h-258l-41 -103h-123zM390 198l-97 240l-97 -240h194z" />
    <glyph glyph-name="uni1EAC.smcp" horiz-adv-x="586" 
d="M436 606h-67l-77 96l-75 -96h-66l93 144h96zM227 550h132l227 -550h-122l-42 103h-258l-41 -103h-123zM390 198l-97 240l-97 -240h194zM293 -191c-32 0 -59 26 -59 59c0 32 27 59 59 59s58 -27 58 -59c0 -33 -26 -59 -58 -59z" />
    <glyph glyph-name="uni1EA6.smcp" horiz-adv-x="586" 
d="M437 606h-67l-77 96l-75 -96h-66l93 144h96zM227 550h132l227 -550h-122l-42 103h-258l-41 -103h-123zM390 198l-97 240l-97 -240h194zM188 676h-75l-165 144h100z" />
    <glyph glyph-name="uni1EA8.smcp" horiz-adv-x="586" 
d="M436 606h-67l-77 96l-75 -96h-66l93 144h96zM227 550h132l227 -550h-122l-42 103h-258l-41 -103h-123zM390 198l-97 240l-97 -240h194zM354 772l-40 12c11 34 39 56 77 56c40 0 76 -21 76 -71c0 -21 -6 -35 -17 -52h-48c15 16 21 33 21 50c0 24 -14 35 -32 35
c-19 0 -31 -12 -37 -30z" />
    <glyph glyph-name="uni1EAE.smcp" horiz-adv-x="586" 
d="M476 828l-165 -144h-75l140 144h100zM227 550h132l227 -550h-122l-42 103h-258l-41 -103h-123zM390 198l-97 240l-97 -240h194zM469 664c-40 -54 -103 -88 -175 -88c-71 0 -135 34 -176 88l48 40c29 -40 73 -66 128 -66c53 0 98 25 127 66z" />
    <glyph glyph-name="uni1EAA.smcp" horiz-adv-x="586" 
d="M436 573h-67l-77 96l-75 -96h-66l93 144h96zM227 550h132l227 -550h-122l-42 103h-258l-41 -103h-123zM390 198l-97 240l-97 -240h194zM351 732c-70 0 -77 78 -119 78c-23 0 -42 -22 -42 -72h-57c0 82 36 134 103 134c69 0 77 -78 119 -78c23 0 41 22 41 72h58
c0 -82 -36 -134 -103 -134z" />
    <glyph glyph-name="uni1EB0.smcp" horiz-adv-x="586" 
d="M227 550h132l227 -550h-122l-42 103h-258l-41 -103h-123zM390 198l-97 240l-97 -240h194zM353 684h-75l-165 144h100zM470 664c-40 -54 -103 -88 -175 -88c-71 0 -135 34 -176 88l48 40c29 -40 73 -66 128 -66c53 0 98 25 127 66z" />
    <glyph glyph-name="uni1EB2.smcp" horiz-adv-x="586" 
d="M227 550h132l227 -550h-122l-42 103h-258l-41 -103h-123zM390 198l-97 240l-97 -240h194zM258 742l-40 12c11 34 39 56 77 56c40 0 76 -21 76 -71c0 -21 -6 -35 -17 -52h-48c15 16 21 33 21 50c0 24 -14 35 -32 35c-19 0 -31 -12 -37 -30zM470 664
c-40 -54 -103 -88 -175 -88c-71 0 -135 34 -176 88l48 40c29 -40 73 -66 128 -66c53 0 98 25 127 66z" />
    <glyph glyph-name="uni1EB4.smcp" horiz-adv-x="586" 
d="M470 664c-40 -54 -103 -88 -175 -88c-71 0 -135 34 -176 88l48 40c29 -40 73 -66 128 -66c53 0 98 25 127 66zM227 550h132l227 -550h-122l-42 103h-258l-41 -103h-123zM390 198l-97 240l-97 -240h194zM352 713c-70 0 -77 78 -119 78c-23 0 -42 -22 -42 -72h-57
c0 82 36 134 103 134c69 0 77 -78 119 -78c23 0 41 22 41 72h58c0 -82 -36 -134 -103 -134z" />
    <glyph glyph-name="uni1EB6.smcp" horiz-adv-x="586" 
d="M227 550h132l227 -550h-122l-42 103h-258l-41 -103h-123zM390 198l-97 240l-97 -240h194zM293 -191c-32 0 -59 26 -59 59c0 32 27 59 59 59s58 -27 58 -59c0 -33 -26 -59 -58 -59zM469 672c-40 -54 -103 -88 -175 -88c-71 0 -135 34 -176 88l48 40c29 -40 73 -66 128 -66
c53 0 98 25 127 66z" />
    <glyph glyph-name="AE.smcp" unicode="&#xf7e6;" horiz-adv-x="835" 
d="M789 0h-402v103h-201l-64 -103h-123l346 550h444v-95h-293v-127h286v-95h-286v-138h293v-95zM387 198v240l-149 -240h149z" />
    <glyph glyph-name="AEacute.smcp" unicode="&#xf670;" horiz-adv-x="835" 
d="M621 750l-165 -144h-75l140 144h100zM789 0h-402v103h-201l-64 -103h-123l346 550h444v-95h-293v-127h286v-95h-286v-138h293v-95zM387 198v240l-149 -240h149z" />
    <glyph glyph-name="uni1E02.smcp" horiz-adv-x="572" 
d="M362 0h-294v550h286c108 0 167 -63 167 -141c0 -66 -43 -111 -94 -125c60 -14 106 -70 106 -135c0 -85 -61 -149 -171 -149zM343 95c48 0 78 26 78 68c0 37 -28 70 -78 70h-166v-138h166zM338 328c46 0 72 27 72 63c0 38 -27 64 -72 64h-161v-127h161zM294 598
c-32 0 -59 26 -59 59c0 32 27 59 59 59s58 -27 58 -59c0 -33 -26 -59 -58 -59z" />
    <glyph glyph-name="Cacute.smcp" unicode="&#xf671;" horiz-adv-x="584" 
d="M515 750l-165 -144h-75l140 144h100zM335 -12c-169 0 -297 118 -297 287c0 170 128 287 297 287c110 0 186 -57 230 -129l-90 -45c-28 46 -80 78 -140 78c-106 0 -186 -80 -186 -191c0 -110 80 -191 186 -191c60 0 114 32 140 77l90 -44c-44 -73 -120 -129 -230 -129z
" />
    <glyph glyph-name="Ccaron.smcp" unicode="&#xf672;" horiz-adv-x="584" 
d="M387 606h-96l-96 144h66l78 -97l74 97h67zM335 -12c-169 0 -297 118 -297 287c0 170 128 287 297 287c110 0 186 -57 230 -129l-90 -45c-28 46 -80 78 -140 78c-106 0 -186 -80 -186 -191c0 -110 80 -191 186 -191c60 0 114 32 140 77l90 -44
c-44 -73 -120 -129 -230 -129z" />
    <glyph glyph-name="Ccedilla.smcp" unicode="&#xf7e7;" horiz-adv-x="584" 
d="M334 -194c-46 0 -86 15 -106 31l22 46c25 -20 54 -29 81 -29c29 0 56 12 56 36c0 19 -11 30 -33 30c-13 0 -26 -6 -34 -15l-41 23l23 62c-153 14 -264 127 -264 285c0 170 128 287 297 287c110 0 186 -57 230 -129l-90 -45c-28 46 -80 78 -140 78
c-106 0 -186 -80 -186 -191c0 -110 80 -191 186 -191c60 0 114 32 140 77l90 -44c-41 -68 -111 -121 -209 -128l-17 -42c10 7 23 11 36 11c38 0 67 -28 67 -69c0 -51 -49 -83 -108 -83z" />
    <glyph glyph-name="Ccircumflex.smcp" unicode="&#xf673;" horiz-adv-x="584" 
d="M480 606h-67l-77 96l-75 -96h-66l93 144h96zM335 -12c-169 0 -297 118 -297 287c0 170 128 287 297 287c110 0 186 -57 230 -129l-90 -45c-28 46 -80 78 -140 78c-106 0 -186 -80 -186 -191c0 -110 80 -191 186 -191c60 0 114 32 140 77l90 -44
c-44 -73 -120 -129 -230 -129z" />
    <glyph glyph-name="Cdotaccent.smcp" unicode="&#xf674;" horiz-adv-x="584" 
d="M335 -12c-169 0 -297 118 -297 287c0 170 128 287 297 287c110 0 186 -57 230 -129l-90 -45c-28 46 -80 78 -140 78c-106 0 -186 -80 -186 -191c0 -110 80 -191 186 -191c60 0 114 32 140 77l90 -44c-44 -73 -120 -129 -230 -129zM337 598c-32 0 -59 26 -59 59
c0 32 27 59 59 59s58 -27 58 -59c0 -33 -26 -59 -58 -59z" />
    <glyph glyph-name="Dcaron.smcp" unicode="&#xf675;" horiz-adv-x="621" 
d="M352 606h-96l-96 144h66l78 -97l74 97h67zM275 0h-218v550h217c182 0 298 -114 298 -276c0 -161 -116 -274 -297 -274zM274 95c122 0 186 81 186 179c0 100 -60 181 -185 181h-109v-360h108z" />
    <glyph glyph-name="Dcroat.smcp" unicode="&#xf676;" horiz-adv-x="631" 
d="M285 0h-218v240h-58v71h58v239h217c182 0 298 -114 298 -276c0 -161 -116 -274 -297 -274zM298 240h-122v-145h108c122 0 186 81 186 179c0 100 -60 181 -185 181h-109v-144h122v-71z" />
    <glyph glyph-name="uni1E0A.smcp" horiz-adv-x="621" 
d="M286 0h-218v550h217c182 0 298 -114 298 -276c0 -161 -116 -274 -297 -274zM285 95c122 0 186 81 186 179c0 100 -60 181 -185 181h-109v-360h108zM303 598c-32 0 -59 26 -59 59c0 32 27 59 59 59s58 -27 58 -59c0 -33 -26 -59 -58 -59z" />
    <glyph glyph-name="Eacute.smcp" unicode="&#xf7e9;" horiz-adv-x="515" 
d="M447 750l-165 -144h-75l140 144h100zM469 0h-401v550h401v-95h-292v-127h286v-95h-286v-138h292v-95z" />
    <glyph glyph-name="Ebreve.smcp" unicode="&#xf677;" horiz-adv-x="515" 
d="M469 0h-401v550h401v-95h-292v-127h286v-95h-286v-138h292v-95zM444 672c-40 -54 -103 -88 -175 -88c-71 0 -135 34 -176 88l48 40c29 -40 73 -66 128 -66c53 0 98 25 127 66z" />
    <glyph glyph-name="Ecaron.smcp" unicode="&#xf678;" horiz-adv-x="515" 
d="M318 606h-96l-96 144h66l78 -97l74 97h67zM469 0h-401v550h401v-95h-292v-127h286v-95h-286v-138h292v-95z" />
    <glyph glyph-name="Ecircumflex.smcp" unicode="&#xf7ea;" horiz-adv-x="515" 
d="M411 606h-67l-77 96l-75 -96h-66l93 144h96zM469 0h-401v550h401v-95h-292v-127h286v-95h-286v-138h292v-95z" />
    <glyph glyph-name="Edieresis.smcp" unicode="&#xf7eb;" horiz-adv-x="515" 
d="M432 658c0 -33 -27 -59 -59 -59s-59 26 -59 59c0 32 27 58 59 58s59 -26 59 -58zM222 658c0 -33 -26 -59 -58 -59c-33 0 -59 26 -59 59c0 32 26 58 59 58c32 0 58 -26 58 -58zM469 0h-401v550h401v-95h-292v-127h286v-95h-286v-138h292v-95z" />
    <glyph glyph-name="Edotaccent.smcp" unicode="&#xf679;" horiz-adv-x="515" 
d="M469 0h-401v550h401v-95h-292v-127h286v-95h-286v-138h292v-95zM269 598c-32 0 -59 26 -59 59c0 32 27 59 59 59s58 -27 58 -59c0 -33 -26 -59 -58 -59z" />
    <glyph glyph-name="Egrave.smcp" unicode="&#xf7e8;" horiz-adv-x="515" 
d="M469 0h-401v550h401v-95h-292v-127h286v-95h-286v-138h292v-95zM329 606h-75l-165 144h100z" />
    <glyph glyph-name="Emacron.smcp" unicode="&#xf67a;" horiz-adv-x="515" 
d="M469 0h-401v550h401v-95h-292v-127h286v-95h-286v-138h292v-95zM450 616h-363v62h363v-62z" />
    <glyph glyph-name="Eogonek.smcp" unicode="&#xf67c;" horiz-adv-x="515" 
d="M483 -101l45 -27c-16 -32 -45 -58 -92 -58c-50 0 -95 26 -95 89c0 37 18 71 48 97h-321v550h401v-95h-292v-127h286v-95h-286v-138h292v-95c-48 -24 -73 -55 -73 -93c0 -32 18 -46 40 -46c25 0 39 15 47 38z" />
    <glyph glyph-name="uni1EB8.smcp" horiz-adv-x="515" 
d="M469 0h-401v550h401v-95h-292v-127h286v-95h-286v-138h292v-95zM269 -191c-32 0 -59 26 -59 59c0 32 27 59 59 59s58 -27 58 -59c0 -33 -26 -59 -58 -59z" />
    <glyph glyph-name="uni1EBA.smcp" horiz-adv-x="515" 
d="M469 0h-401v550h401v-95h-292v-127h286v-95h-286v-138h292v-95zM232 635l-40 12c11 34 39 56 77 56c40 0 76 -21 76 -71c0 -21 -6 -35 -17 -52h-48c15 16 21 33 21 50c0 24 -14 35 -32 35c-19 0 -31 -12 -37 -30z" />
    <glyph glyph-name="uni1EBC.smcp" horiz-adv-x="515" 
d="M469 0h-401v550h401v-95h-292v-127h286v-95h-286v-138h292v-95zM326 604c-70 0 -77 78 -119 78c-23 0 -42 -22 -42 -72h-57c0 82 36 134 103 134c69 0 77 -78 119 -78c23 0 41 22 41 72h58c0 -82 -36 -134 -103 -134z" />
    <glyph glyph-name="uni1EBE.smcp" horiz-adv-x="515" 
d="M411 606h-67l-77 96l-75 -96h-66l93 144h96zM611 820l-165 -144h-75l140 144h100zM469 0h-401v550h401v-95h-292v-127h286v-95h-286v-138h292v-95z" />
    <glyph glyph-name="uni1EC0.smcp" horiz-adv-x="515" 
d="M411 606h-67l-77 96l-75 -96h-66l93 144h96zM469 0h-401v550h401v-95h-292v-127h286v-95h-286v-138h292v-95zM162 676h-75l-165 144h100z" />
    <glyph glyph-name="uni1EC2.smcp" horiz-adv-x="515" 
d="M411 606h-67l-77 96l-75 -96h-66l93 144h96zM469 0h-401v550h401v-95h-292v-127h286v-95h-286v-138h292v-95zM332 772l-40 12c11 34 39 56 77 56c40 0 76 -21 76 -71c0 -21 -6 -35 -17 -52h-48c15 16 21 33 21 50c0 24 -14 35 -32 35c-19 0 -31 -12 -37 -30z" />
    <glyph glyph-name="uni1EC4.smcp" horiz-adv-x="515" 
d="M411 573h-67l-77 96l-75 -96h-66l93 144h96zM469 0h-401v550h401v-95h-292v-127h286v-95h-286v-138h292v-95zM326 732c-70 0 -77 78 -119 78c-23 0 -42 -22 -42 -72h-57c0 82 36 134 103 134c69 0 77 -78 119 -78c23 0 41 22 41 72h58c0 -82 -36 -134 -103 -134z" />
    <glyph glyph-name="uni1EC6.smcp" horiz-adv-x="515" 
d="M411 606h-67l-77 96l-75 -96h-66l93 144h96zM469 0h-401v550h401v-95h-292v-127h286v-95h-286v-138h292v-95zM269 -191c-32 0 -59 26 -59 59c0 32 27 59 59 59s58 -27 58 -59c0 -33 -26 -59 -58 -59z" />
    <glyph glyph-name="uni1E1E.smcp" horiz-adv-x="501" 
d="M269 598c-32 0 -59 26 -59 59c0 32 27 59 59 59s58 -27 58 -59c0 -33 -26 -59 -58 -59zM177 0h-109v550h401v-95h-292v-127h286v-95h-286v-233z" />
    <glyph glyph-name="Gbreve.smcp" unicode="&#xf67d;" horiz-adv-x="620" 
d="M337 -12c-168 0 -299 115 -299 287c0 173 131 287 299 287c103 0 179 -50 225 -111l-87 -53c-30 39 -80 67 -138 67c-108 0 -187 -79 -187 -190c0 -110 79 -192 187 -192c56 0 100 25 124 47v79h-147v91h256v-211c-57 -61 -138 -101 -233 -101zM513 672
c-40 -54 -103 -88 -175 -88c-71 0 -135 34 -176 88l48 40c29 -40 73 -66 128 -66c53 0 98 25 127 66z" />
    <glyph glyph-name="Gcircumflex.smcp" unicode="&#xf67e;" horiz-adv-x="620" 
d="M337 -12c-168 0 -299 115 -299 287c0 173 131 287 299 287c103 0 179 -50 225 -111l-87 -53c-30 39 -80 67 -138 67c-108 0 -187 -79 -187 -190c0 -110 79 -192 187 -192c56 0 100 25 124 47v79h-147v91h256v-211c-57 -61 -138 -101 -233 -101zM480 606h-67l-77 96
l-75 -96h-66l93 144h96z" />
    <glyph glyph-name="Gcommaaccent.smcp" unicode="&#xf67f;" horiz-adv-x="620" 
d="M337 -12c-168 0 -299 115 -299 287c0 173 131 287 299 287c103 0 179 -50 225 -111l-87 -53c-30 39 -80 67 -138 67c-108 0 -187 -79 -187 -190c0 -110 79 -192 187 -192c56 0 100 25 124 47v79h-147v91h256v-211c-57 -61 -138 -101 -233 -101zM396 -138
c0 -58 -33 -111 -78 -143l-39 31c28 17 56 53 61 82c-2 -1 -9 -2 -14 -2c-27 0 -48 21 -48 51c0 31 24 56 55 56c33 0 63 -27 63 -75z" />
    <glyph glyph-name="Gdotaccent.smcp" unicode="&#xf680;" horiz-adv-x="620" 
d="M337 -12c-168 0 -299 115 -299 287c0 173 131 287 299 287c103 0 179 -50 225 -111l-87 -53c-30 39 -80 67 -138 67c-108 0 -187 -79 -187 -190c0 -110 79 -192 187 -192c56 0 100 25 124 47v79h-147v91h256v-211c-57 -61 -138 -101 -233 -101zM338 598
c-32 0 -59 26 -59 59c0 32 27 59 59 59s58 -27 58 -59c0 -33 -26 -59 -58 -59z" />
    <glyph glyph-name="Gbreve.smcp.alt1" horiz-adv-x="636" 
d="M332 -12c-163 0 -294 115 -294 287c0 173 131 287 299 287c103 0 179 -50 225 -111l-87 -53c-30 40 -80 68 -138 68c-108 0 -187 -80 -187 -191c0 -110 79 -192 187 -192c75 0 140 46 155 126h-178v91h294c0 -199 -112 -312 -276 -312zM513 672
c-40 -54 -103 -88 -175 -88c-71 0 -135 34 -176 88l48 40c29 -40 73 -66 128 -66c53 0 98 25 127 66z" />
    <glyph glyph-name="Gcommaaccent.smcp.alt1" horiz-adv-x="636" 
d="M396 -138c0 -58 -33 -111 -78 -143l-39 31c28 17 56 53 61 82c-2 -1 -9 -2 -14 -2c-27 0 -48 21 -48 51c0 31 24 56 55 56c33 0 63 -27 63 -75zM332 -12c-163 0 -294 115 -294 287c0 173 131 287 299 287c103 0 179 -50 225 -111l-87 -53c-30 40 -80 68 -138 68
c-108 0 -187 -80 -187 -191c0 -110 79 -192 187 -192c75 0 140 46 155 126h-178v91h294c0 -199 -112 -312 -276 -312z" />
    <glyph glyph-name="Gcircumflex.smcp.alt1" horiz-adv-x="636" 
d="M480 606h-67l-77 96l-75 -96h-66l93 144h96zM332 -12c-163 0 -294 115 -294 287c0 173 131 287 299 287c103 0 179 -50 225 -111l-87 -53c-30 40 -80 68 -138 68c-108 0 -187 -80 -187 -191c0 -110 79 -192 187 -192c75 0 140 46 155 126h-178v91h294
c0 -199 -112 -312 -276 -312z" />
    <glyph glyph-name="Gdotaccent.smcp.alt1" horiz-adv-x="636" 
d="M332 -12c-163 0 -294 115 -294 287c0 173 131 287 299 287c103 0 179 -50 225 -111l-87 -53c-30 40 -80 68 -138 68c-108 0 -187 -80 -187 -191c0 -110 79 -192 187 -192c75 0 140 46 155 126h-178v91h294c0 -199 -112 -312 -276 -312zM338 598c-32 0 -59 26 -59 59
c0 32 27 59 59 59s58 -27 58 -59c0 -33 -26 -59 -58 -59z" />
    <glyph glyph-name="Hbar.smcp" unicode="&#xf682;" horiz-adv-x="661" 
d="M585 0h-109v234h-290v-234h-109v411h-68v62h68v77h109v-77h290v77h109v-77h67v-62h-67v-411zM186 329h290v82h-290v-82z" />
    <glyph glyph-name="Hcircumflex.smcp" unicode="&#xf681;" horiz-adv-x="644" 
d="M465 606h-67l-77 96l-75 -96h-66l93 144h96zM576 0h-109v234h-290v-234h-109v550h109v-221h290v221h109v-550z" />
    <glyph glyph-name="uni1E22.smcp" horiz-adv-x="644" 
d="M576 0h-109v234h-290v-234h-109v550h109v-221h290v221h109v-550zM323 598c-32 0 -59 26 -59 59c0 32 27 59 59 59s58 -27 58 -59c0 -33 -26 -59 -58 -59z" />
    <glyph glyph-name="Iacute.smcp" unicode="&#xf7ed;" horiz-adv-x="245" 
d="M301 750l-165 -144h-75l140 144h100zM177 0h-109v550h109v-550z" />
    <glyph glyph-name="Ibreve.smcp" unicode="&#xf683;" horiz-adv-x="245" 
d="M177 0h-109v550h109v-550zM299 672c-40 -54 -103 -88 -175 -88c-71 0 -135 34 -176 88l48 40c29 -40 73 -66 128 -66c53 0 98 25 127 66z" />
    <glyph glyph-name="Igrave.smcp" unicode="&#xf7ec;" horiz-adv-x="245" 
d="M177 0h-109v550h109v-550zM183 606h-75l-165 144h100z" />
    <glyph glyph-name="Icircumflex.smcp" unicode="&#xf7ee;" horiz-adv-x="245" 
d="M266 606h-67l-77 96l-75 -96h-66l93 144h96zM177 0h-109v550h109v-550z" />
    <glyph glyph-name="Idieresis.smcp" unicode="&#xf7ef;" horiz-adv-x="245" 
d="M287 658c0 -33 -27 -59 -59 -59s-59 26 -59 59c0 32 27 58 59 58s59 -26 59 -58zM77 658c0 -33 -26 -59 -58 -59c-33 0 -59 26 -59 59c0 32 26 58 59 58c32 0 58 -26 58 -58zM177 0h-109v550h109v-550z" />
    <glyph glyph-name="Idotaccent.smcp" unicode="&#xf6ad;" horiz-adv-x="245" 
d="M177 0h-109v550h109v-550zM123 598c-32 0 -59 26 -59 59c0 32 27 59 59 59s58 -27 58 -59c0 -33 -26 -59 -58 -59z" />
    <glyph glyph-name="Imacron.smcp" unicode="&#xf685;" horiz-adv-x="245" 
d="M305 616h-363v62h363v-62zM177 0h-109v550h109v-550z" />
    <glyph glyph-name="Iogonek.smcp" unicode="&#xf686;" horiz-adv-x="245" 
d="M177 0c-48 -24 -73 -55 -73 -93c0 -32 18 -46 40 -46c25 0 39 15 47 38l45 -27c-16 -32 -45 -58 -92 -58c-50 0 -95 26 -95 89c0 37 18 71 48 97h-29v550h109v-550z" />
    <glyph glyph-name="Itilde.smcp" unicode="&#xf687;" horiz-adv-x="245" 
d="M177 0h-109v550h109v-550zM181 604c-70 0 -77 78 -119 78c-23 0 -42 -22 -42 -72h-57c0 82 36 134 103 134c69 0 77 -78 119 -78c23 0 41 22 41 72h58c0 -82 -36 -134 -103 -134z" />
    <glyph glyph-name="uni1EC8.smcp" horiz-adv-x="245" 
d="M177 0h-109v550h109v-550zM87 635l-40 12c11 34 39 56 77 56c40 0 76 -21 76 -71c0 -21 -6 -35 -17 -52h-48c15 16 21 33 21 50c0 24 -14 35 -32 35c-19 0 -31 -12 -37 -30z" />
    <glyph glyph-name="uni1ECA.smcp" horiz-adv-x="245" 
d="M177 0h-109v550h109v-550zM124 -191c-32 0 -59 26 -59 59c0 32 27 59 59 59s58 -27 58 -59c0 -33 -26 -59 -58 -59z" />
    <glyph glyph-name="IJ.smcp" unicode="&#xf684;" horiz-adv-x="673" 
d="M402 -12c-59 0 -112 20 -151 63l46 81c23 -27 55 -48 97 -48c62 0 101 39 101 98v368h110v-377c0 -127 -84 -185 -203 -185zM177 0h-109v550h109v-550z" />
    <glyph glyph-name="Jcircumflex.smcp" unicode="&#xf688;" horiz-adv-x="428" 
d="M447 606h-67l-77 96l-75 -96h-66l93 144h96zM157 -12c-59 0 -112 20 -151 63l46 81c23 -27 55 -48 97 -48c62 0 101 39 101 98v368h110v-377c0 -127 -84 -185 -203 -185z" />
    <glyph glyph-name="Kcommaaccent.smcp" unicode="&#xf689;" horiz-adv-x="552" 
d="M341 -138c0 -58 -33 -111 -78 -143l-39 31c28 17 56 53 61 82c-2 -1 -9 -2 -14 -2c-27 0 -48 21 -48 51c0 31 24 56 55 56c33 0 63 -27 63 -75zM546 0h-133l-190 227l-46 -51v-176h-109v550h109v-251l218 251h133l-235 -260z" />
    <glyph glyph-name="Lacute.smcp" unicode="&#xf68a;" horiz-adv-x="464" 
d="M430 0h-362v550h109v-455h253v-95zM428 750l-165 -144h-75l140 144h100z" />
    <glyph glyph-name="Lcaron.smcp" unicode="&#xf68b;" horiz-adv-x="464" 
d="M365 484c0 -58 -33 -111 -78 -143l-39 31c28 17 56 53 61 82c-2 -1 -9 -2 -14 -2c-27 0 -48 21 -48 51c0 31 24 56 55 56c33 0 63 -27 63 -75zM430 0h-362v550h109v-455h253v-95z" />
    <glyph glyph-name="Lcommaaccent.smcp" unicode="&#xf68c;" horiz-adv-x="464" 
d="M310 -138c0 -58 -33 -111 -78 -143l-39 31c28 17 56 53 61 82c-2 -1 -9 -2 -14 -2c-27 0 -48 21 -48 51c0 31 24 56 55 56c33 0 63 -27 63 -75zM430 0h-362v550h109v-455h253v-95z" />
    <glyph glyph-name="Ldot.smcp" unicode="&#xf68d;" horiz-adv-x="487" 
d="M430 0h-362v550h109v-455h253v-95zM440 299c0 -37 -32 -69 -70 -69s-70 32 -70 69c0 38 32 70 70 70s70 -32 70 -70z" />
    <glyph glyph-name="Lslash.smcp" unicode="&#xf6f9;" horiz-adv-x="480" 
d="M9 153v97l75 43v257h109v-194l87 51v-98l-87 -50v-164h253v-95h-362v196z" />
    <glyph glyph-name="Nacute.smcp" unicode="&#xf68e;" horiz-adv-x="641" 
d="M499 750l-165 -144h-75l140 144h100zM573 0h-111l-285 380v-380h-109v550h116l280 -370v370h109v-550z" />
    <glyph glyph-name="Ncaron.smcp" unicode="&#xf68f;" horiz-adv-x="641" 
d="M369 606h-96l-96 144h66l78 -97l74 97h67zM573 0h-111l-285 380v-380h-109v550h116l280 -370v370h109v-550z" />
    <glyph glyph-name="Ncommaaccent.smcp" unicode="&#xf690;" horiz-adv-x="641" 
d="M382 -138c0 -58 -33 -111 -78 -143l-39 31c28 17 56 53 61 82c-2 -1 -9 -2 -14 -2c-27 0 -48 21 -48 51c0 31 24 56 55 56c33 0 63 -27 63 -75zM573 0h-111l-285 380v-380h-109v550h116l280 -370v370h109v-550z" />
    <glyph glyph-name="Ntilde.smcp" unicode="&#xf7f1;" horiz-adv-x="641" 
d="M573 0h-111l-285 380v-380h-109v550h116l280 -370v370h109v-550zM378 604c-70 0 -77 78 -119 78c-23 0 -42 -22 -42 -72h-57c0 82 36 134 103 134c69 0 77 -78 119 -78c23 0 41 22 41 72h58c0 -82 -36 -134 -103 -134z" />
    <glyph glyph-name="Eng.smcp" unicode="&#xf67b;" horiz-adv-x="641" 
d="M371 -196c-59 0 -112 20 -152 63l46 81c23 -27 56 -48 98 -48c61 0 100 40 101 98l-287 382v-380h-109v550h116l280 -370v370h109v-561c0 -127 -84 -185 -202 -185z" />
    <glyph glyph-name="Oacute.smcp" unicode="&#xf7f3;" horiz-adv-x="658" 
d="M329 -12c-174 0 -291 123 -291 287s117 287 291 287c172 0 290 -123 290 -287s-118 -287 -290 -287zM329 84c108 0 179 83 179 191c0 109 -71 191 -179 191c-110 0 -180 -82 -180 -191c0 -108 70 -191 180 -191zM508 750l-165 -144h-75l140 144h100z" />
    <glyph glyph-name="Obreve.smcp" unicode="&#xf691;" horiz-adv-x="658" 
d="M329 -12c-174 0 -291 123 -291 287s117 287 291 287c172 0 290 -123 290 -287s-118 -287 -290 -287zM329 84c108 0 179 83 179 191c0 109 -71 191 -179 191c-110 0 -180 -82 -180 -191c0 -108 70 -191 180 -191zM505 672c-40 -54 -103 -88 -175 -88
c-71 0 -135 34 -176 88l48 40c29 -40 73 -66 128 -66c53 0 98 25 127 66z" />
    <glyph glyph-name="Ocircumflex.smcp" unicode="&#xf7f4;" horiz-adv-x="658" 
d="M329 -12c-174 0 -291 123 -291 287s117 287 291 287c172 0 290 -123 290 -287s-118 -287 -290 -287zM329 84c108 0 179 83 179 191c0 109 -71 191 -179 191c-110 0 -180 -82 -180 -191c0 -108 70 -191 180 -191zM472 606h-67l-77 96l-75 -96h-66l93 144h96z" />
    <glyph glyph-name="Odieresis.smcp" unicode="&#xf7f6;" horiz-adv-x="658" 
d="M329 -12c-174 0 -291 123 -291 287s117 287 291 287c172 0 290 -123 290 -287s-118 -287 -290 -287zM329 84c108 0 179 83 179 191c0 109 -71 191 -179 191c-110 0 -180 -82 -180 -191c0 -108 70 -191 180 -191zM493 658c0 -33 -27 -59 -59 -59s-59 26 -59 59
c0 32 27 58 59 58s59 -26 59 -58zM283 658c0 -33 -26 -59 -58 -59c-33 0 -59 26 -59 59c0 32 26 58 59 58c32 0 58 -26 58 -58z" />
    <glyph glyph-name="Ograve.smcp" unicode="&#xf7f2;" horiz-adv-x="658" 
d="M329 -12c-174 0 -291 123 -291 287s117 287 291 287c172 0 290 -123 290 -287s-118 -287 -290 -287zM329 84c108 0 179 83 179 191c0 109 -71 191 -179 191c-110 0 -180 -82 -180 -191c0 -108 70 -191 180 -191zM390 606h-75l-165 144h100z" />
    <glyph glyph-name="Ohungarumlaut.smcp" unicode="&#xf692;" horiz-adv-x="658" 
d="M329 -12c-174 0 -291 123 -291 287s117 287 291 287c172 0 290 -123 290 -287s-118 -287 -290 -287zM329 84c108 0 179 83 179 191c0 109 -71 191 -179 191c-110 0 -180 -82 -180 -191c0 -108 70 -191 180 -191zM392 750l-115 -144h-63l90 144h88zM538 750l-115 -144h-63
l90 144h88z" />
    <glyph glyph-name="Omacron.smcp" unicode="&#xf693;" horiz-adv-x="658" 
d="M329 -12c-174 0 -291 123 -291 287s117 287 291 287c172 0 290 -123 290 -287s-118 -287 -290 -287zM329 84c108 0 179 83 179 191c0 109 -71 191 -179 191c-110 0 -180 -82 -180 -191c0 -108 70 -191 180 -191zM511 616h-363v62h363v-62z" />
    <glyph glyph-name="Otilde.smcp" unicode="&#xf7f5;" horiz-adv-x="658" 
d="M329 -12c-174 0 -291 123 -291 287s117 287 291 287c172 0 290 -123 290 -287s-118 -287 -290 -287zM329 84c108 0 179 83 179 191c0 109 -71 191 -179 191c-110 0 -180 -82 -180 -191c0 -108 70 -191 180 -191zM387 604c-70 0 -77 78 -119 78c-23 0 -42 -22 -42 -72h-57
c0 82 36 134 103 134c69 0 77 -78 119 -78c23 0 41 22 41 72h58c0 -82 -36 -134 -103 -134z" />
    <glyph glyph-name="Oslash.smcp" unicode="&#xf7f8;" horiz-adv-x="658" 
d="M329 -12c-57 0 -108 13 -151 36l-18 -24h-87l50 65c-54 52 -85 125 -85 210c0 164 117 287 291 287c55 0 105 -13 147 -36l18 24h87l-49 -64c55 -52 87 -126 87 -211c0 -164 -118 -287 -290 -287zM329 84c108 0 179 83 179 191c0 49 -15 93 -41 126l-227 -296
c25 -13 55 -21 89 -21zM149 275c0 -48 14 -92 39 -125l226 296c-24 13 -53 20 -85 20c-110 0 -180 -82 -180 -191z" />
    <glyph glyph-name="Oslashacute.smcp" unicode="&#xf694;" horiz-adv-x="658" 
d="M329 -12c-57 0 -108 13 -151 36l-18 -24h-87l50 65c-54 52 -85 125 -85 210c0 164 117 287 291 287c55 0 105 -13 147 -36l18 24h87l-49 -64c55 -52 87 -126 87 -211c0 -164 -118 -287 -290 -287zM329 84c108 0 179 83 179 191c0 49 -15 93 -41 126l-227 -296
c25 -13 55 -21 89 -21zM149 275c0 -48 14 -92 39 -125l226 296c-24 13 -53 20 -85 20c-110 0 -180 -82 -180 -191zM508 750l-165 -144h-75l140 144h100z" />
    <glyph glyph-name="uni1ECC.smcp" horiz-adv-x="658" 
d="M329 -12c-174 0 -291 123 -291 287s117 287 291 287c172 0 290 -123 290 -287s-118 -287 -290 -287zM329 84c108 0 179 83 179 191c0 109 -71 191 -179 191c-110 0 -180 -82 -180 -191c0 -108 70 -191 180 -191zM330 -191c-32 0 -59 26 -59 59c0 32 27 59 59 59
s58 -27 58 -59c0 -33 -26 -59 -58 -59z" />
    <glyph glyph-name="uni1ECE.smcp" horiz-adv-x="658" 
d="M329 -12c-174 0 -291 123 -291 287s117 287 291 287c172 0 290 -123 290 -287s-118 -287 -290 -287zM329 84c108 0 179 83 179 191c0 109 -71 191 -179 191c-110 0 -180 -82 -180 -191c0 -108 70 -191 180 -191zM293 640l-40 12c11 34 39 56 77 56c40 0 76 -21 76 -71
c0 -21 -6 -35 -17 -52h-48c15 16 21 33 21 50c0 24 -14 35 -32 35c-19 0 -31 -12 -37 -30z" />
    <glyph glyph-name="uni1ED0.smcp" horiz-adv-x="658" 
d="M329 -12c-174 0 -291 123 -291 287s117 287 291 287c172 0 290 -123 290 -287s-118 -287 -290 -287zM329 84c108 0 179 83 179 191c0 109 -71 191 -179 191c-110 0 -180 -82 -180 -191c0 -108 70 -191 180 -191zM472 606h-67l-77 96l-75 -96h-66l93 144h96zM672 820
l-165 -144h-75l140 144h100z" />
    <glyph glyph-name="uni1ED2.smcp" horiz-adv-x="658" 
d="M329 -12c-174 0 -291 123 -291 287s117 287 291 287c172 0 290 -123 290 -287s-118 -287 -290 -287zM329 84c108 0 179 83 179 191c0 109 -71 191 -179 191c-110 0 -180 -82 -180 -191c0 -108 70 -191 180 -191zM472 606h-67l-77 96l-75 -96h-66l93 144h96zM223 676h-75
l-165 144h100z" />
    <glyph glyph-name="uni1ED4.smcp" horiz-adv-x="658" 
d="M329 -12c-174 0 -291 123 -291 287s117 287 291 287c172 0 290 -123 290 -287s-118 -287 -290 -287zM329 84c108 0 179 83 179 191c0 109 -71 191 -179 191c-110 0 -180 -82 -180 -191c0 -108 70 -191 180 -191zM472 606h-67l-77 96l-75 -96h-66l93 144h96zM390 772
l-40 12c11 34 39 56 77 56c40 0 76 -21 76 -71c0 -21 -6 -35 -17 -52h-48c15 16 21 33 21 50c0 24 -14 35 -32 35c-19 0 -31 -12 -37 -30z" />
    <glyph glyph-name="uni1ED6.smcp" horiz-adv-x="658" 
d="M329 -12c-174 0 -291 123 -291 287s117 287 291 287c172 0 290 -123 290 -287s-118 -287 -290 -287zM329 84c108 0 179 83 179 191c0 109 -71 191 -179 191c-110 0 -180 -82 -180 -191c0 -108 70 -191 180 -191zM473 573h-67l-77 96l-75 -96h-66l93 144h96zM388 732
c-70 0 -77 78 -119 78c-23 0 -42 -22 -42 -72h-57c0 82 36 134 103 134c69 0 77 -78 119 -78c23 0 41 22 41 72h58c0 -82 -36 -134 -103 -134z" />
    <glyph glyph-name="uni1ED8.smcp" horiz-adv-x="658" 
d="M329 -12c-174 0 -291 123 -291 287s117 287 291 287c172 0 290 -123 290 -287s-118 -287 -290 -287zM329 84c108 0 179 83 179 191c0 109 -71 191 -179 191c-110 0 -180 -82 -180 -191c0 -108 70 -191 180 -191zM472 606h-67l-77 96l-75 -96h-66l93 144h96zM330 -191
c-32 0 -59 26 -59 59c0 32 27 59 59 59s58 -27 58 -59c0 -33 -26 -59 -58 -59z" />
    <glyph glyph-name="Ohorn.smcp" horiz-adv-x="658" 
d="M329 -12c-174 0 -291 123 -291 287s117 287 291 287c97 0 178 -40 229 -104c19 17 34 42 38 63c-2 -1 -8 -2 -13 -2c-25 0 -44 20 -44 47c0 28 22 51 50 51c30 0 57 -25 57 -69c0 -50 -26 -96 -64 -127c24 -42 37 -92 37 -146c0 -164 -118 -287 -290 -287zM329 84
c108 0 179 83 179 191c0 109 -71 191 -179 191c-110 0 -180 -82 -180 -191c0 -108 70 -191 180 -191z" />
    <glyph glyph-name="uni1EDA.smcp" horiz-adv-x="658" 
d="M329 -12c-174 0 -291 123 -291 287s117 287 291 287c97 0 178 -40 229 -104c19 17 34 42 38 63c-2 -1 -8 -2 -13 -2c-25 0 -44 20 -44 47c0 28 22 51 50 51c30 0 57 -25 57 -69c0 -50 -26 -96 -64 -127c24 -42 37 -92 37 -146c0 -164 -118 -287 -290 -287zM329 84
c108 0 179 83 179 191c0 109 -71 191 -179 191c-110 0 -180 -82 -180 -191c0 -108 70 -191 180 -191zM508 750l-165 -144h-75l140 144h100z" />
    <glyph glyph-name="uni1EDC.smcp" horiz-adv-x="658" 
d="M329 -12c-174 0 -291 123 -291 287s117 287 291 287c97 0 178 -40 229 -104c19 17 34 42 38 63c-2 -1 -8 -2 -13 -2c-25 0 -44 20 -44 47c0 28 22 51 50 51c30 0 57 -25 57 -69c0 -50 -26 -96 -64 -127c24 -42 37 -92 37 -146c0 -164 -118 -287 -290 -287zM329 84
c108 0 179 83 179 191c0 109 -71 191 -179 191c-110 0 -180 -82 -180 -191c0 -108 70 -191 180 -191zM390 606h-75l-165 144h100z" />
    <glyph glyph-name="uni1EDE.smcp" horiz-adv-x="658" 
d="M329 -12c-174 0 -291 123 -291 287s117 287 291 287c97 0 178 -40 229 -104c19 17 34 42 38 63c-2 -1 -8 -2 -13 -2c-25 0 -44 20 -44 47c0 28 22 51 50 51c30 0 57 -25 57 -69c0 -50 -26 -96 -64 -127c24 -42 37 -92 37 -146c0 -164 -118 -287 -290 -287zM329 84
c108 0 179 83 179 191c0 109 -71 191 -179 191c-110 0 -180 -82 -180 -191c0 -108 70 -191 180 -191zM293 640l-40 12c11 34 39 56 77 56c40 0 76 -21 76 -71c0 -21 -6 -35 -17 -52h-48c15 16 21 33 21 50c0 24 -14 35 -32 35c-19 0 -31 -12 -37 -30z" />
    <glyph glyph-name="uni1EE0.smcp" horiz-adv-x="658" 
d="M329 -12c-174 0 -291 123 -291 287s117 287 291 287c97 0 178 -40 229 -104c19 17 34 42 38 63c-2 -1 -8 -2 -13 -2c-25 0 -44 20 -44 47c0 28 22 51 50 51c30 0 57 -25 57 -69c0 -50 -26 -96 -64 -127c24 -42 37 -92 37 -146c0 -164 -118 -287 -290 -287zM329 84
c108 0 179 83 179 191c0 109 -71 191 -179 191c-110 0 -180 -82 -180 -191c0 -108 70 -191 180 -191zM387 604c-70 0 -77 78 -119 78c-23 0 -42 -22 -42 -72h-57c0 82 36 134 103 134c69 0 77 -78 119 -78c23 0 41 22 41 72h58c0 -82 -36 -134 -103 -134z" />
    <glyph glyph-name="uni1EE2.smcp" horiz-adv-x="658" 
d="M329 -12c-174 0 -291 123 -291 287s117 287 291 287c97 0 178 -40 229 -104c19 17 34 42 38 63c-2 -1 -8 -2 -13 -2c-25 0 -44 20 -44 47c0 28 22 51 50 51c30 0 57 -25 57 -69c0 -50 -26 -96 -64 -127c24 -42 37 -92 37 -146c0 -164 -118 -287 -290 -287zM329 84
c108 0 179 83 179 191c0 109 -71 191 -179 191c-110 0 -180 -82 -180 -191c0 -108 70 -191 180 -191zM330 -191c-32 0 -59 26 -59 59c0 32 27 59 59 59s58 -27 58 -59c0 -33 -26 -59 -58 -59z" />
    <glyph glyph-name="OE.smcp" unicode="&#xf6fa;" horiz-adv-x="939" 
d="M893 0h-401v81c-42 -63 -106 -93 -182 -93c-162 0 -272 122 -272 287c0 164 110 287 272 287c75 0 140 -30 182 -93v81h401v-95h-292v-127h286v-95h-286v-138h292v-95zM492 197v157c-29 78 -93 112 -162 112c-111 0 -181 -82 -181 -191c0 -108 70 -191 181 -191
c71 0 133 35 162 113z" />
    <glyph glyph-name="uni1E56.smcp" horiz-adv-x="540" 
d="M177 0h-109v550h260c122 0 188 -81 188 -175c0 -95 -63 -176 -188 -176h-151v-199zM316 294c58 0 88 34 88 81c0 46 -31 80 -88 80h-139v-161h139zM289 598c-32 0 -59 26 -59 59c0 32 27 59 59 59s58 -27 58 -59c0 -33 -26 -59 -58 -59z" />
    <glyph glyph-name="Racute.smcp" unicode="&#xf695;" horiz-adv-x="561" 
d="M466 750l-165 -144h-75l140 144h100zM522 0h-126l-124 199h-95v-199h-109v550h260c119 0 188 -78 188 -175c0 -98 -63 -156 -136 -166zM316 294c58 0 89 34 89 81s-33 80 -89 80h-139v-161h139z" />
    <glyph glyph-name="Rcaron.smcp" unicode="&#xf696;" horiz-adv-x="561" 
d="M322 606h-96l-96 144h66l78 -97l74 97h67zM522 0h-126l-124 199h-95v-199h-109v550h260c119 0 188 -78 188 -175c0 -98 -63 -156 -136 -166zM316 294c58 0 89 34 89 81s-33 80 -89 80h-139v-161h139z" />
    <glyph glyph-name="Rcommaaccent.smcp" unicode="&#xf697;" horiz-adv-x="561" 
d="M338 -138c0 -58 -33 -111 -78 -143l-39 31c28 17 56 53 61 82c-2 -1 -9 -2 -14 -2c-27 0 -48 21 -48 51c0 31 24 56 55 56c33 0 63 -27 63 -75zM522 0h-126l-124 199h-95v-199h-109v550h260c119 0 188 -78 188 -175c0 -98 -63 -156 -136 -166zM316 294c58 0 89 34 89 81
s-33 80 -89 80h-139v-161h139z" />
    <glyph glyph-name="Sacute.smcp" unicode="&#xf698;" horiz-adv-x="511" 
d="M433 750l-165 -144h-75l140 144h100zM254 -12c-102 0 -183 36 -230 84l52 84c38 -39 106 -75 181 -75c80 0 114 34 114 74c0 112 -329 38 -329 242c0 92 86 165 211 165c92 0 165 -30 217 -79l-53 -78c-42 41 -108 63 -165 63c-59 0 -99 -28 -99 -68
c0 -97 329 -31 329 -240c0 -101 -77 -172 -228 -172z" />
    <glyph glyph-name="Scaron.smcp" unicode="&#xf6fd;" horiz-adv-x="511" 
d="M307 606h-96l-96 144h66l78 -97l74 97h67zM254 -12c-102 0 -183 36 -230 84l52 84c38 -39 106 -75 181 -75c80 0 114 34 114 74c0 112 -329 38 -329 242c0 92 86 165 211 165c92 0 165 -30 217 -79l-53 -78c-42 41 -108 63 -165 63c-59 0 -99 -28 -99 -68
c0 -97 329 -31 329 -240c0 -101 -77 -172 -228 -172z" />
    <glyph glyph-name="Scircumflex.smcp" unicode="&#xf69a;" horiz-adv-x="511" 
d="M400 606h-67l-77 96l-75 -96h-66l93 144h96zM254 -12c-102 0 -183 36 -230 84l52 84c38 -39 106 -75 181 -75c80 0 114 34 114 74c0 112 -329 38 -329 242c0 92 86 165 211 165c92 0 165 -30 217 -79l-53 -78c-42 41 -108 63 -165 63c-59 0 -99 -28 -99 -68
c0 -97 329 -31 329 -240c0 -101 -77 -172 -228 -172z" />
    <glyph glyph-name="Scedilla.smcp" unicode="&#xf699;" horiz-adv-x="511" 
d="M252 -194c-46 0 -86 15 -106 31l22 46c25 -20 54 -29 81 -29c29 0 56 12 56 36c0 19 -11 30 -33 30c-13 0 -26 -6 -34 -15l-41 23l23 62c-86 7 -155 39 -196 82l52 84c38 -39 106 -75 181 -75c80 0 114 34 114 74c0 112 -329 38 -329 242c0 92 86 165 211 165
c92 0 165 -30 217 -79l-53 -78c-42 41 -108 63 -165 63c-59 0 -99 -28 -99 -68c0 -97 329 -31 329 -240c0 -97 -71 -165 -208 -171l-17 -42c10 7 23 11 36 11c38 0 67 -28 67 -69c0 -51 -49 -83 -108 -83z" />
    <glyph glyph-name="Scommaaccent.smcp" unicode="&#xf69b;" horiz-adv-x="511" 
d="M320 -138c0 -58 -33 -111 -78 -143l-39 31c28 17 56 53 61 82c-2 -1 -9 -2 -14 -2c-27 0 -48 21 -48 51c0 31 24 56 55 56c33 0 63 -27 63 -75zM254 -12c-102 0 -183 36 -230 84l52 84c38 -39 106 -75 181 -75c80 0 114 34 114 74c0 112 -329 38 -329 242
c0 92 86 165 211 165c92 0 165 -30 217 -79l-53 -78c-42 41 -108 63 -165 63c-59 0 -99 -28 -99 -68c0 -97 329 -31 329 -240c0 -101 -77 -172 -228 -172z" />
    <glyph glyph-name="uni1E60.smcp" horiz-adv-x="511" 
d="M254 -12c-102 0 -183 36 -230 84l52 84c38 -39 106 -75 181 -75c80 0 114 34 114 74c0 112 -329 38 -329 242c0 92 86 165 211 165c92 0 165 -30 217 -79l-53 -78c-42 41 -108 63 -165 63c-59 0 -99 -28 -99 -68c0 -97 329 -31 329 -240c0 -101 -77 -172 -228 -172z
M262 598c-32 0 -59 26 -59 59c0 32 27 59 59 59s58 -27 58 -59c0 -33 -26 -59 -58 -59z" />
    <glyph glyph-name="Tbar.smcp" unicode="&#xf69c;" horiz-adv-x="480" 
d="M294 0h-109v221h-108v62h108v172h-162v95h434v-95h-163v-172h110v-62h-110v-221z" />
    <glyph glyph-name="Tcaron.smcp" unicode="&#xf69d;" horiz-adv-x="480" 
d="M290 606h-96l-96 144h66l78 -97l74 97h67zM294 0h-109v455h-162v95h434v-95h-163v-455z" />
    <glyph glyph-name="Tcommaaccent.smcp" unicode="&#xf69e;" horiz-adv-x="480" 
d="M302 -138c0 -58 -33 -111 -78 -143l-39 31c28 17 56 53 61 82c-2 -1 -9 -2 -14 -2c-27 0 -48 21 -48 51c0 31 24 56 55 56c33 0 63 -27 63 -75zM294 0h-109v455h-162v95h434v-95h-163v-455z" />
    <glyph glyph-name="uni021A.smcp" horiz-adv-x="480" 
d="M302 -138c0 -58 -33 -111 -78 -143l-39 31c28 17 56 53 61 82c-2 -1 -9 -2 -14 -2c-27 0 -48 21 -48 51c0 31 24 56 55 56c33 0 63 -27 63 -75zM294 0h-109v455h-162v95h434v-95h-163v-455z" />
    <glyph glyph-name="uni1E6A.smcp" horiz-adv-x="480" 
d="M294 0h-109v455h-162v95h434v-95h-163v-455zM242 598c-32 0 -59 26 -59 59c0 32 27 59 59 59s58 -27 58 -59c0 -33 -26 -59 -58 -59z" />
    <glyph glyph-name="Uacute.smcp" unicode="&#xf7fa;" horiz-adv-x="636" 
d="M497 750l-165 -144h-75l140 144h100zM318 -12c-168 0 -250 92 -250 227v335h110v-326c0 -85 49 -140 140 -140c90 0 140 55 140 140v326h110v-334c0 -137 -83 -228 -250 -228z" />
    <glyph glyph-name="Ubreve.smcp" unicode="&#xf69f;" horiz-adv-x="636" 
d="M318 -12c-168 0 -250 92 -250 227v335h110v-326c0 -85 49 -140 140 -140c90 0 140 55 140 140v326h110v-334c0 -137 -83 -228 -250 -228zM493 672c-40 -54 -103 -88 -175 -88c-71 0 -135 34 -176 88l48 40c29 -40 73 -66 128 -66c53 0 98 25 127 66z" />
    <glyph glyph-name="Ucircumflex.smcp" unicode="&#xf7fb;" horiz-adv-x="636" 
d="M461 606h-67l-77 96l-75 -96h-66l93 144h96zM318 -12c-168 0 -250 92 -250 227v335h110v-326c0 -85 49 -140 140 -140c90 0 140 55 140 140v326h110v-334c0 -137 -83 -228 -250 -228z" />
    <glyph glyph-name="Udieresis.smcp" unicode="&#xf7fc;" horiz-adv-x="636" 
d="M482 658c0 -33 -27 -59 -59 -59s-59 26 -59 59c0 32 27 58 59 58s59 -26 59 -58zM272 658c0 -33 -26 -59 -58 -59c-33 0 -59 26 -59 59c0 32 26 58 59 58c32 0 58 -26 58 -58zM318 -12c-168 0 -250 92 -250 227v335h110v-326c0 -85 49 -140 140 -140c90 0 140 55 140 140
v326h110v-334c0 -137 -83 -228 -250 -228z" />
    <glyph glyph-name="Ugrave.smcp" unicode="&#xf7f9;" horiz-adv-x="636" 
d="M318 -12c-168 0 -250 92 -250 227v335h110v-326c0 -85 49 -140 140 -140c90 0 140 55 140 140v326h110v-334c0 -137 -83 -228 -250 -228zM379 606h-75l-165 144h100z" />
    <glyph glyph-name="Uhungarumlaut.smcp" unicode="&#xf6a0;" horiz-adv-x="636" 
d="M318 -12c-168 0 -250 92 -250 227v335h110v-326c0 -85 49 -140 140 -140c90 0 140 55 140 140v326h110v-334c0 -137 -83 -228 -250 -228zM379 750l-115 -144h-63l90 144h88zM525 750l-115 -144h-63l90 144h88z" />
    <glyph glyph-name="Umacron.smcp" unicode="&#xf6a1;" horiz-adv-x="636" 
d="M318 -12c-168 0 -250 92 -250 227v335h110v-326c0 -85 49 -140 140 -140c90 0 140 55 140 140v326h110v-334c0 -137 -83 -228 -250 -228zM500 616h-363v62h363v-62z" />
    <glyph glyph-name="Uogonek.smcp" unicode="&#xf6a2;" horiz-adv-x="636" 
d="M318 -12c-168 0 -250 92 -250 227v335h110v-326c0 -85 49 -140 140 -140c90 0 140 55 140 140v326h110v-334c0 -108 -52 -187 -155 -216c-48 -24 -73 -55 -73 -93c0 -32 18 -46 40 -46c25 0 39 15 47 38l45 -27c-16 -32 -45 -58 -92 -58c-50 0 -95 26 -95 89
c0 32 13 61 36 85h-3z" />
    <glyph glyph-name="Uring.smcp" unicode="&#xf6a3;" horiz-adv-x="636" 
d="M318 -12c-168 0 -250 92 -250 227v335h110v-326c0 -85 49 -140 140 -140c90 0 140 55 140 140v326h110v-334c0 -137 -83 -228 -250 -228zM319 572c-56 0 -102 46 -102 102s46 103 102 103s101 -47 101 -103s-45 -102 -101 -102zM319 622c29 0 51 24 51 52
c0 29 -22 52 -51 52c-28 0 -52 -23 -52 -52c0 -28 24 -52 52 -52z" />
    <glyph glyph-name="Utilde.smcp" unicode="&#xf6a4;" horiz-adv-x="636" 
d="M318 -12c-168 0 -250 92 -250 227v335h110v-326c0 -85 49 -140 140 -140c90 0 140 55 140 140v326h110v-334c0 -137 -83 -228 -250 -228zM376 604c-70 0 -77 78 -119 78c-23 0 -42 -22 -42 -72h-57c0 82 36 134 103 134c69 0 77 -78 119 -78c23 0 41 22 41 72h58
c0 -82 -36 -134 -103 -134z" />
    <glyph glyph-name="uni1EE4.smcp" horiz-adv-x="636" 
d="M318 -12c-168 0 -250 92 -250 227v335h110v-326c0 -85 49 -140 140 -140c90 0 140 55 140 140v326h110v-334c0 -137 -83 -228 -250 -228zM318 -191c-32 0 -59 26 -59 59c0 32 27 59 59 59s58 -27 58 -59c0 -33 -26 -59 -58 -59z" />
    <glyph glyph-name="Uhorn.smcp" horiz-adv-x="636" 
d="M318 -12c-168 0 -250 92 -250 227v335h110v-326c0 -85 49 -140 140 -140c90 0 140 55 140 140v326h110v-41c28 19 51 49 54 77c-1 -1 -8 -2 -12 -2c-26 0 -45 20 -45 47c0 28 22 51 50 51c31 0 58 -25 58 -69c0 -60 -38 -120 -105 -152v-245c0 -137 -83 -228 -250 -228z
" />
    <glyph glyph-name="uni1EE6.smcp" horiz-adv-x="636" 
d="M318 -12c-168 0 -250 92 -250 227v335h110v-326c0 -85 49 -140 140 -140c90 0 140 55 140 140v326h110v-334c0 -137 -83 -228 -250 -228zM281 635l-40 12c11 34 39 56 77 56c40 0 76 -21 76 -71c0 -21 -6 -35 -17 -52h-48c15 16 21 33 21 50c0 24 -14 35 -32 35
c-19 0 -31 -12 -37 -30z" />
    <glyph glyph-name="uni1EE8.smcp" horiz-adv-x="636" 
d="M497 750l-165 -144h-75l140 144h100zM318 -12c-168 0 -250 92 -250 227v335h110v-326c0 -85 49 -140 140 -140c90 0 140 55 140 140v326h110v-41c28 19 51 49 54 77c-1 -1 -8 -2 -12 -2c-26 0 -45 20 -45 47c0 28 22 51 50 51c31 0 58 -25 58 -69
c0 -60 -38 -120 -105 -152v-245c0 -137 -83 -228 -250 -228z" />
    <glyph glyph-name="uni1EEA.smcp" horiz-adv-x="636" 
d="M379 606h-75l-165 144h100zM318 -12c-168 0 -250 92 -250 227v335h110v-326c0 -85 49 -140 140 -140c90 0 140 55 140 140v326h110v-41c28 19 51 49 54 77c-1 -1 -8 -2 -12 -2c-26 0 -45 20 -45 47c0 28 22 51 50 51c31 0 58 -25 58 -69c0 -60 -38 -120 -105 -152v-245
c0 -137 -83 -228 -250 -228z" />
    <glyph glyph-name="uni1EEC.smcp" horiz-adv-x="636" 
d="M281 635l-40 12c11 34 39 56 77 56c40 0 76 -21 76 -71c0 -21 -6 -35 -17 -52h-48c15 16 21 33 21 50c0 24 -14 35 -32 35c-19 0 -31 -12 -37 -30zM318 -12c-168 0 -250 92 -250 227v335h110v-326c0 -85 49 -140 140 -140c90 0 140 55 140 140v326h110v-41
c28 19 51 49 54 77c-1 -1 -8 -2 -12 -2c-26 0 -45 20 -45 47c0 28 22 51 50 51c31 0 58 -25 58 -69c0 -60 -38 -120 -105 -152v-245c0 -137 -83 -228 -250 -228z" />
    <glyph glyph-name="uni1EEE.smcp" horiz-adv-x="636" 
d="M318 -12c-168 0 -250 92 -250 227v335h110v-326c0 -85 49 -140 140 -140c90 0 140 55 140 140v326h110v-41c28 19 51 49 54 77c-1 -1 -8 -2 -12 -2c-26 0 -45 20 -45 47c0 28 22 51 50 51c31 0 58 -25 58 -69c0 -60 -38 -120 -105 -152v-245c0 -137 -83 -228 -250 -228z
M376 604c-70 0 -77 78 -119 78c-23 0 -42 -22 -42 -72h-57c0 82 36 134 103 134c69 0 77 -78 119 -78c23 0 41 22 41 72h58c0 -82 -36 -134 -103 -134z" />
    <glyph glyph-name="uni1EF0.smcp" horiz-adv-x="636" 
d="M318 -191c-32 0 -59 26 -59 59c0 32 27 59 59 59s58 -27 58 -59c0 -33 -26 -59 -58 -59zM318 -12c-168 0 -250 92 -250 227v335h110v-326c0 -85 49 -140 140 -140c90 0 140 55 140 140v326h110v-41c28 19 51 49 54 77c-1 -1 -8 -2 -12 -2c-26 0 -45 20 -45 47
c0 28 22 51 50 51c31 0 58 -25 58 -69c0 -60 -38 -120 -105 -152v-245c0 -137 -83 -228 -250 -228z" />
    <glyph glyph-name="Wacute.smcp" horiz-adv-x="783" 
d="M613 0h-114l-108 389l-108 -389h-114l-165 550h121l107 -405l116 405h87l115 -406l108 406h121zM570 750l-165 -144h-75l140 144h100z" />
    <glyph glyph-name="Wcircumflex.smcp" unicode="&#xf6a6;" horiz-adv-x="783" 
d="M534 606h-67l-77 96l-75 -96h-66l93 144h96zM613 0h-114l-108 389l-108 -389h-114l-165 550h121l107 -405l116 405h87l115 -406l108 406h121z" />
    <glyph glyph-name="Wdieresis.smcp" horiz-adv-x="783" 
d="M613 0h-114l-108 389l-108 -389h-114l-165 550h121l107 -405l116 405h87l115 -406l108 406h121zM555 658c0 -33 -27 -59 -59 -59s-59 26 -59 59c0 32 27 58 59 58s59 -26 59 -58zM345 658c0 -33 -26 -59 -58 -59c-33 0 -59 26 -59 59c0 32 26 58 59 58
c32 0 58 -26 58 -58z" />
    <glyph glyph-name="Wgrave.smcp" horiz-adv-x="783" 
d="M613 0h-114l-108 389l-108 -389h-114l-165 550h121l107 -405l116 405h87l115 -406l108 406h121zM452 606h-75l-165 144h100z" />
    <glyph glyph-name="Yacute.smcp" unicode="&#xf7fd;" horiz-adv-x="557" 
d="M459 750l-165 -144h-75l140 144h100zM334 0h-108v229l-226 321h124l156 -229l153 229h124l-223 -321v-229z" />
    <glyph glyph-name="Ycircumflex.smcp" unicode="&#xf6a9;" horiz-adv-x="557" 
d="M423 606h-67l-77 96l-75 -96h-66l93 144h96zM334 0h-108v229l-226 321h124l156 -229l153 229h124l-223 -321v-229z" />
    <glyph glyph-name="Ydieresis.smcp" unicode="&#xf7ff;" horiz-adv-x="557" 
d="M444 658c0 -33 -27 -59 -59 -59s-59 26 -59 59c0 32 27 58 59 58s59 -26 59 -58zM234 658c0 -33 -26 -59 -58 -59c-33 0 -59 26 -59 59c0 32 26 58 59 58c32 0 58 -26 58 -58zM334 0h-108v229l-226 321h124l156 -229l153 229h124l-223 -321v-229z" />
    <glyph glyph-name="Ygrave.smcp" horiz-adv-x="557" 
d="M334 0h-108v229l-226 321h124l156 -229l153 229h124l-223 -321v-229zM341 606h-75l-165 144h100z" />
    <glyph glyph-name="Zacute.smcp" unicode="&#xf6ab;" horiz-adv-x="520" 
d="M439 750l-165 -144h-75l140 144h100zM483 0h-446v80l290 374h-290v96h439v-80l-289 -374h296v-96z" />
    <glyph glyph-name="Zcaron.smcp" unicode="&#xf6ff;" horiz-adv-x="520" 
d="M309 606h-96l-96 144h66l78 -97l74 97h67zM483 0h-446v80l290 374h-290v96h439v-80l-289 -374h296v-96z" />
    <glyph glyph-name="Zdotaccent.smcp" unicode="&#xf6ac;" horiz-adv-x="520" 
d="M483 0h-446v80l290 374h-290v96h439v-80l-289 -374h296v-96zM261 598c-32 0 -59 26 -59 59c0 32 27 59 59 59s58 -27 58 -59c0 -33 -26 -59 -58 -59z" />
    <glyph glyph-name="Eth.smcp" unicode="&#xf7f0;" horiz-adv-x="631" 
d="M285 0h-218v240h-58v71h58v239h217c182 0 298 -114 298 -276c0 -161 -116 -274 -297 -274zM298 240h-122v-145h108c122 0 186 81 186 179c0 100 -60 181 -185 181h-109v-144h122v-71z" />
    <glyph glyph-name="Thorn.smcp" unicode="&#xf7fe;" horiz-adv-x="540" 
d="M177 0h-109v550h109v-86h151c122 0 188 -82 188 -176s-63 -175 -188 -175h-151v-113zM316 208c58 0 88 34 88 80s-30 81 -88 81h-139v-161h139z" />
    <glyph glyph-name="acute" unicode="&#xb4;" horiz-adv-x="240" 
d="M240 700l-165 -144h-75l140 144h100z" />
    <glyph glyph-name="dieresis" unicode="&#xa8;" horiz-adv-x="285" 
d="M306 608c0 -33 -27 -59 -59 -59s-59 26 -59 59c0 32 27 58 59 58s59 -26 59 -58zM96 608c0 -33 -26 -59 -58 -59c-33 0 -59 26 -59 59c0 32 26 58 59 58c32 0 58 -26 58 -58z" />
    <glyph glyph-name="grave" unicode="`" horiz-adv-x="240" 
d="M240 556h-75l-165 144h100z" />
    <glyph glyph-name="uni02CB" unicode="&#x2cb;" horiz-adv-x="240" 
d="M240 556h-75l-165 144h100z" />
    <glyph glyph-name="circumflex" unicode="&#x2c6;" horiz-adv-x="285" 
d="M285 556h-67l-77 96l-75 -96h-66l93 144h96z" />
    <glyph glyph-name="tilde" unicode="&#x2dc;" horiz-adv-x="321" 
d="M218 554c-70 0 -77 78 -119 78c-23 0 -42 -22 -42 -72h-57c0 82 36 134 103 134c69 0 77 -78 119 -78c23 0 41 22 41 72h58c0 -82 -36 -134 -103 -134z" />
    <glyph glyph-name="macron" unicode="&#xaf;" horiz-adv-x="363" 
d="M363 566h-363v62h363v-62z" />
    <glyph glyph-name="uni203E" unicode="&#x203e;" horiz-adv-x="363" 
d="M363 566h-363v62h363v-62z" />
    <glyph glyph-name="breve" unicode="&#x2d8;" horiz-adv-x="351" 
d="M351 622c-40 -54 -103 -88 -175 -88c-71 0 -135 34 -176 88l48 40c29 -40 73 -66 128 -66c53 0 98 25 127 66z" />
    <glyph glyph-name="dotaccent" unicode="&#x2d9;" horiz-adv-x="147" 
d="M74 548c-32 0 -59 26 -59 59c0 32 27 59 59 59s58 -27 58 -59c0 -33 -26 -59 -58 -59z" />
    <glyph glyph-name="ring" unicode="&#x2da;" horiz-adv-x="203" 
d="M102 536c-56 0 -102 46 -102 102s46 103 102 103s101 -47 101 -103s-45 -102 -101 -102zM102 586c29 0 51 24 51 52c0 29 -22 52 -51 52c-28 0 -52 -23 -52 -52c0 -28 24 -52 52 -52z" />
    <glyph glyph-name="cedilla" unicode="&#xb8;" horiz-adv-x="214" 
d="M106 -194c-46 0 -86 15 -106 31l22 46c25 -20 54 -29 81 -29c29 0 56 12 56 36c0 19 -11 30 -33 30c-13 0 -26 -6 -34 -15l-41 23l31 83h55l-26 -64c10 7 23 11 36 11c38 0 67 -28 67 -69c0 -51 -49 -83 -108 -83z" />
    <glyph glyph-name="hungarumlaut" unicode="&#x2dd;" horiz-adv-x="324" 
d="M178 700l-115 -144h-63l90 144h88zM324 700l-115 -144h-63l90 144h88z" />
    <glyph glyph-name="ogonek" unicode="&#x2db;" horiz-adv-x="187" 
d="M142 -101l45 -27c-16 -32 -45 -58 -92 -58c-50 0 -95 26 -95 89c0 51 34 95 88 124l40 -27c-48 -24 -73 -55 -73 -93c0 -32 18 -46 40 -46c25 0 39 15 47 38z" />
    <glyph glyph-name="caron" unicode="&#x2c7;" horiz-adv-x="285" 
d="M192 556h-96l-96 144h66l78 -97l74 97h67z" />
    <glyph glyph-name="commaaccent" unicode="&#xf6c3;" horiz-adv-x="244" 
d="M184 -138c0 -58 -33 -111 -78 -143l-39 31c28 17 56 53 61 82c-2 -1 -9 -2 -14 -2c-27 0 -48 21 -48 51c0 31 24 56 55 56c33 0 63 -27 63 -75z" />
    <glyph glyph-name="uni02C9" unicode="&#x2c9;" horiz-adv-x="363" 
d="M363 591h-363v62h363v-62z" />
    <glyph glyph-name="hookabovecomb" unicode="&#x309;" horiz-adv-x="187" 
d="M55 722l-40 12c11 34 39 56 77 56c40 0 76 -21 76 -71c0 -21 -6 -35 -17 -52h-48c15 16 21 33 21 50c0 24 -14 35 -32 35c-19 0 -31 -12 -37 -30z" />
    <glyph glyph-name="Alpha" unicode="&#x391;" horiz-adv-x="673" 
d="M671 0h-133l-49 128h-306l-49 -128h-133l262 667h146zM456 231l-120 318l-120 -318h240z" />
    <glyph glyph-name="Beta" unicode="&#x392;" horiz-adv-x="648" 
d="M408 0h-337v667h328c122 0 190 -76 190 -170c0 -84 -54 -140 -116 -153c71 -11 129 -82 129 -164c0 -103 -69 -180 -194 -180zM375 391c60 0 94 36 94 86s-34 87 -94 87h-187v-173h187zM380 103c64 0 102 35 102 93c0 50 -35 92 -102 92h-192v-185h192z" />
    <glyph glyph-name="Gamma" unicode="&#x393;" horiz-adv-x="562" 
d="M188 0h-117v667h457v-103h-340v-564z" />
    <glyph glyph-name="uni0394" unicode="&#x394;" horiz-adv-x="673" 
d="M671 0h-670l262 667h146zM506 103l-170 446l-169 -446h339z" />
    <glyph glyph-name="Delta" unicode="&#x2206;" horiz-adv-x="673" 
d="M671 0h-670l262 667h146zM506 103l-170 446l-169 -446h339z" />
    <glyph glyph-name="Epsilon" unicode="&#x395;" horiz-adv-x="577" 
d="M528 0h-457v667h457v-103h-340v-173h333v-103h-333v-185h340v-103z" />
    <glyph glyph-name="Zeta" unicode="&#x396;" horiz-adv-x="589" 
d="M544 0h-500v95l341 469h-341v103h493v-95l-341 -469h348v-103z" />
    <glyph glyph-name="Eta" unicode="&#x397;" horiz-adv-x="723" 
d="M652 0h-117v291h-347v-291h-117v667h117v-273h347v273h117v-667z" />
    <glyph glyph-name="Theta" unicode="&#x398;" horiz-adv-x="765" 
d="M550 288h-335v103h335v-103zM382 -12c-200 0 -341 146 -341 345s141 345 341 345s341 -146 341 -345s-141 -345 -341 -345zM382 92c134 0 221 104 221 241c0 138 -87 241 -221 241c-135 0 -221 -103 -221 -241c0 -137 86 -241 221 -241z" />
    <glyph glyph-name="Iota" unicode="&#x399;" horiz-adv-x="259" 
d="M188 0h-117v667h117v-667z" />
    <glyph glyph-name="Kappa" unicode="&#x39a;" horiz-adv-x="621" 
d="M614 0h-144l-224 281l-58 -68v-213h-117v667h117v-318l261 318h145l-271 -315z" />
    <glyph glyph-name="Lambda" unicode="&#x39b;" horiz-adv-x="673" 
d="M671 0h-133l-202 549l-202 -549h-133l262 667h146z" />
    <glyph glyph-name="Mu" unicode="&#x39c;" horiz-adv-x="835" 
d="M764 0h-117v495l-205 -495h-50l-204 495v-495h-117v667h165l181 -439l182 439h165v-667z" />
    <glyph glyph-name="Nu" unicode="&#x39d;" horiz-adv-x="720" 
d="M649 0h-113l-348 476v-476h-117v667h120l341 -463v463h117v-667z" />
    <glyph glyph-name="Xi" unicode="&#x39e;" horiz-adv-x="620" 
d="M570 564h-521v103h521v-103zM570 0h-521v103h521v-103zM564 288h-508v103h508v-103z" />
    </font>
</defs>
</svg>
